Watch WWE Talking mack Clash Of Champions 2017 720p WEB HEEL

Watch WWE Talking mack Clash Of Champions 2017 720p WEB HEEL

 

 

 

 

 

 

wwe

 

 

 

 

 

 

 

 
Complete name : WWE.Talking.Smack.Clash.Of.Champions.2017.720p.WEB.h264-HEEL.mp4
Format : MPEG-4
Format profile : Base Media
Codec ID : isom
File size : 823 MiB
Duration : 25mn 31s
Overall bit rate : 4 507 Kbps
Writing application : Lavf58.2.103

Video
ID : 1
Format : AVC
Format/Info : Advanced Video Codec
Codec ID : avc1
Codec ID/Info : Advanced Video Coding
Duration : 25mn 31s
Bit rate mode : Constant
Bit rate : 4 372 Kbps
Width : 1 280 pixels
Height : 720 pixels
Display aspect ratio : 16:9
Frame rate mode : Constant
Frame rate : 29.970 fps
Color space : YUV
Chroma subsampling : 4:2:0
Bit depth : 8 bits
Scan type : Progressive
Bits/(Pixel*Frame) : 0.158
Stream size : 798 MiB (97%)

Audio
ID : 2
Format : AAC
Format/Info : Advanced Audio Codec
Format profile : LC
Codec ID : 40
Duration : 25mn 31s
Bit rate mode : Constant
Bit rate : 125 Kbps
Channel(s) : 2 channels
Channel positions : Front: L R
Sampling rate : 48.0 KHz
Compression mode : Lossy
Stream size : 22.9 MiB (3%)
Language : English
 

 

 

 

 

 

 

 

 

 

Watch WWE Talking mack Clash Of Champions 2017 720p WEB HEEL

 

 

 

 

Watch online

 

 

Waiting finish converting video

 

 

Server 1

 

 

 

 

 

 

 

 

 

 

 

 

 

 

 

 

 

 

 

 

Server 2

 

 

 

 

 

 

 

 

 

 

 

 

 

 


 

 

 

 

 

 

 

Uploaded By Site DX-TV.com

 

 

 

open rar file to see this password

 

 

 

 

The password is : DX-TV.com

 

 

 

 

720p

 

 

 

 

 

rapidgator.net

 

 

 

 

 

 

 

 

 

 

 

 

 

http://shrt10.com/hRMR7RXL

 

 

 

 

 

 

 

 

Watch WWE Talking mack Clash Of Champions 2017 720p WEB HEEL

Support HVIPS

Please Disable Ad-Block To View This site. just help us to continue this work