Watch WWE Survivor Series 2017 PPV WEB /720p

Watch WWE Survivor Series 2017 PPV WEB /720p

 

 

 

 

 

 

wwe

 

 

 

 

 

 

 

General
Complete name : WWE.Survivor.Series.2017.PPV.WEB.h264-HEEL.mp4
Format : MPEG-4
Format profile : Base Media
Codec ID : isom
File size : 2.86 GiB
Duration : 3h 46mn
Overall bit rate : 1 806 Kbps
Writing application : Lavf57.20.100

Video
ID : 1
Format : AVC
Bit rate mode : Constant
Bit rate : 1 704 Kbps
Width : 896 pixels
Height : 504 pixels
Display aspect ratio : 16:9
Frame rate mode : Constant
Frame rate : 29.970 fps
Color space : YUV
Chroma subsampling : 4:2:0
Bit depth : 8 bits
Scan type : Progressive
Bits/(Pixel*Frame) : 0.126
Stream size : 2.70 GiB (94%)

Audio
ID : 2
Format : AAC
Format profile : LC
Codec ID : 40
Duration : 3h 46mn
Bit rate mode : Constant
Bit rate : 93.5 Kbps
Channel(s) : 2 channels
Channel positions : Front: L R
Sampling rate : 48.0 KHz
Compression mode : Lossy
Stream size : 152 MiB (5%)
 

 

 

Complete name :  WWE.Survivor.Series.2017.PPV.720p.WEB.h264-HEEL.mp4
Format : MPEG-4
Format profile : Base Media
Codec ID : isom
File size : 7.14 GiB
Duration : 3h 46mn
Overall bit rate : 4 507 Kbps
Writing application : Lavf57.20.100

Video
ID : 1
Format : AVC 
Duration : 3h 46mn
Bit rate mode : Constant
Bit rate : 4 372 Kbps
Width : 1 280 pixels
Height : 720 pixels
Display aspect ratio : 16:9
Frame rate mode : Constant
Frame rate : 29.970 fps
Color space : YUV
Chroma subsampling : 4:2:0
Bit depth : 8 bits
Scan type : Progressive
Bits/(Pixel*Frame) : 0.158
Stream size : 6.93 GiB (97%)

Audio
ID : 2
Format : AAC 
Format profile : LC
Codec ID : 40
Duration : 3h 46mn
Bit rate mode : Variable
Bit rate : 125 Kbps
Maximum bit rate : 135 Kbps
Channel(s) : 2 channels
Channel positions : Front: L R
Sampling rate : 48.0 KHz
Compression mode : Lossy
Stream size : 204 MiB (3%)

 

 

 

 

 

 

 

 

Watch WWE Survivor Series 2017 PPV WEB /720p

 

 

 

 

Watch online

 

 

Waiting finish converting video

 

 

Server 1

 

 

 

 

 

 

 

 

 

 

 

 

 

 

 

 

 

 

 

Server 2

 

 

 

 

 

 

 

 

 

 


 

 

 

 

 

 

 

 

 

 

Srver 3

 

 

 

 

 

 

 

 

 

 


 

 

 

 

 

 

 

 

 

Uploaded By Site DX-TV.com

 

 

 

open rar file to see this password

 

 

 

 

The password is : DX-TV.com

 

 

 

 

400p+720p

 

 

 

Uploaded.net

 

 

 

 

 

 

 

 

http://shrt10.com/IjZy

 

 

 

 

 

 

http://shrt10.com/txmfUE

 

 

 

http://shrt10.com/M9LxuQg

 

 

 

 

 

 

 

rapidgator.net

 

 

 

 

 

 

 

 

 

http://shrt10.com/IvND

 

 

 

 

 

 

http://shrt10.com/360F

 

 

 

http://shrt10.com/0V973

 

 

 

 

 

 

 

 

 

 

 

Watch WWE Survivor Series 2017 PPV WEB /720p