Watch WWE SmackDown Live 2018 03 20 720p WEB HEEL

Watch WWE SmackDown Live 2018 03 20 720p WEB HEEL

 

 

 

s

 

 

 

wwe

 

 

 

 

 

 

Complete name : WWE.SmackDown.2018.03.20.720p.WEB.h264-HEEL.mp4
Format : MPEG-4
Format profile : Base Media
Codec ID : isom
File size : 2.89 GiB
Duration : 1h 24mn
Overall bit rate : 4 874 Kbps
Writing application : Lavf58.2.103

Video
ID : 1
Format : AVC
Format/Info : Advanced Video Codec
Format profile : High@L3.2
Codec ID : avc1
Codec ID/Info : Advanced Video Coding
Duration : 1h 24mn
Bit rate mode : Variable
Bit rate : 4 731 Kbps
Maximum bit rate : 4 700 Kbps
Width : 1 280 pixels
Height : 720 pixels
Display aspect ratio : 16:9
Frame rate mode : Variable
Frame rate : 59.940 fps
Minimum frame rate : 28.143 fps
Maximum frame rate : 61.100 fps
Color space : YUV
Chroma subsampling : 4:2:0
Bit depth : 8 bits
Scan type : Progressive
Bits/(Pixel*Frame) : 0.086
Stream size : 2.80 GiB (97%)

Audio
ID : 2
Format : AAC
Format/Info : Advanced Audio Codec
Format profile : LC
Codec ID : 40
Duration : 1h 24mn
Bit rate mode : Variable
Bit rate : 126 Kbps
Maximum bit rate : 143 Kbps
Channel(s) : 2 channels
Channel positions : Front: L R
Sampling rate : 44.1 KHz
Compression mode : Lossy
Stream size : 76.2 MiB (3%)

 

 

 

 

 

 

 

 

 

 

Watch WWE SmackDown Live 2018 03 20 720p WEB HEEL

 

 

 

 

Watch online

 

 

Waiting finish converting video

 

 

Server 1

 

 

 

 

 

 

 

 

 

 

 

 

 

 

 

 

 

Server 2

 

 

 

 

 

 


 

 

 

 

 

Uploaded By Site DX-TV.com

 

 

 

open rar file to see this password

 

 

 

 

The password is : DX-TV.com

 

 

 

 

 

 

Uploaded.net + rapidgator.net

 

 

 

 

 

 

http://shrt10.com/4TVi72

 

 

 

 

http://shrt10.com/8l0hOmmU

 

 

 

 

 

 

 

 

 

 

Watch WWE SmackDown Live 2018 03 20 720p WEB HEEL