Watch WWE SmackDown Live 2018 03 06 HDTV NWCHD /720p

Watch WWE SmackDown Live 2018 03 06 HDTV NWCHD /720p

 

 

 

s

 

 

 

wwe

 

 

 

 

 

 
Complete name : WWE.SmackDown.Live.2018.03.06.HDTV.x264-NWCHD.mp4
Format : MPEG-4
Format profile : Base Media
Codec ID : isom
File size : 1 007 MiB
Duration : 1h 28mn
Overall bit rate : 1 598 Kbps
Writing application : Lavf56.40.101

Video
ID : 1
Format : AVC
Format/Info : Advanced Video Codec
Format settings, GOP : N=1
Codec ID : avc1
Codec ID/Info : Advanced Video Coding
Duration : 1h 28mn
Bit rate mode : Variable
Bit rate : 1 400 Kbps
Width : 704 pixels
Height : 400 pixels
Display aspect ratio : 16:9
Frame rate mode : Variable
Frame rate : 29.970 fps
Minimum frame rate : 29.240 fps
Maximum frame rate : 29.970 fps
Color space : YUV
Chroma subsampling : 4:2:0
Bit depth : 8 bits
Scan type : Progressive
Bits/(Pixel*Frame) : 0.166
Stream size : 880 MiB (87%)

Audio
ID : 2
Format : AAC
Format/Info : Advanced Audio Codec
Format profile : LC
Codec ID : 40
Duration : 1h 28mn
Bit rate mode : Variable
Bit rate : 192 Kbps
Maximum bit rate : 200 Kbps
Channel(s) : 2 channels
Channel positions : Front: L R
Sampling rate : 48.0 KHz
Compression mode : Lossy
Stream size : 121 MiB (12%)

 

 

 

 

 

 

 

 

 
File Name – WWE.SmackDown.Live.2018.03.06.720p.HDTV.x264-NWCHD
Released – 03.06.2018
Aired – 03.06.2018
Size – 2.88 GB
Source – USA HD
Container – MP4
Resolution – 1280 x 720 (16:9) @ 29.970 FPS
Video – x264 @ 4500 kbps
Audio – AAC @ 192 kbps
Length – 01:28:04 min
 

 

 

 

 

 

 

 

 

 

Watch WWE SmackDown Live 2018 03 06 HDTV NWCHD /720p

 

 

 

 

Watch online

 

 

Waiting finish converting video

 

 

Server 1

 

 

 

 

 

 

 

 

 

 

 

 

 

 

 

 

 

Server 2

 

 

 

 

 

 

 


 

 

 

 

 

Uploaded By Site DX-TV.com

 

 

 

open rar file to see this password

 

 

 

 

The password is : DX-TV.com

 

 

 

 

400p+720p

 

 

 

 

 

Uploaded.net + rapidgator.net

 

 

 

 

 

 

http://shrt10.com/aQoWyTH

 

 

http://shrt10.com/vA8n

 

 

http://shrt10.com/CHMEa5Jx

 

 

http://shrt10.com/hx2GY9

 

 

 

 

 

Watch WWE SmackDown Live 2018 03 06 HDTV NWCHD /720p