Watch WWE Smackdown Live 2018 01 30 HDTV Ebi /720p

Watch WWE Smackdown Live 2018 01 30 HDTV Ebi /720p

 

 

 

 

 

 

wwe

 

 

 

 

 

 
WWE.Smackdown.Live.2018.01.30.HDTV.x264-Ebi
Release Info:
Show Name: WWE Smackdown
Genre: Wrestling
Release Date: 2018-01-31(UK)
Air Date: 2018-01-30(US)
Source : HDTV
Container: MP4
Video: x264, 1465Kbps, 29,970fps, 712×400, 16:9
Audio: AAC, 160Kbps, 48KHz, 2ch
Size: 908 MB
Runtime: 1h 26mn
 

 

 

 

 

 

Complete name : WWE.Smackdown.Live.2018.01.30.720p.HDTV.x264-Ebi.mp4
Format : MPEG-4
Format profile : Base Media / Version 2
Codec ID : mp42
File size : 2.84 GiB
Duration : 1h 26mn
Overall bit rate : 4 694 Kbps
Encoded date : UTC 2018-01-31 03:57:20
Tagged date : UTC 2018-01-31 03:57:20

Video
ID : 1
Format : AVC
Format/Info : Advanced Video Codec
Codec ID : avc1
Codec ID/Info : Advanced Video Coding
Duration : 1h 26mn
Bit rate mode : Variable
Bit rate : 4 500 Kbps
Width : 1 280 pixels
Height : 720 pixels
Display aspect ratio : 16:9
Frame rate mode : Constant
Frame rate : 29.970 fps
Color space : YUV
Chroma subsampling : 4:2:0
Bit depth : 8 bits
Scan type : Progressive
Bits/(Pixel*Frame) : 0.163
Stream size : 2.72 GiB (96%)

Audio
ID : 2
Format : AAC
Format/Info : Advanced Audio Codec
Format profile : LC
Codec ID : 40
Duration : 1h 26mn
Bit rate mode : Variable
Bit rate : 192 Kbps
Channel(s) : 2 channels
Channel positions : Front: L R
Sampling rate : 48.0 KHz
Compression mode : Lossy
Stream size : 119 MiB (4%)
Title : Stereo

 

 

 

 

 

 

 

 

 

 

 

 

Watch WWE Smackdown Live 2018 01 30 HDTV Ebi /720p

 

 

 

 

Watch online

 

 

Waiting finish converting video

 

 

Server 1

 

 

 

 

 

 

 

 

 

 

 

 

 

 

 

 

 

 

 

Server 2

 

 

 

 

 

 

 

 

 

 


 

 

 

 

 

Uploaded By Site DX-TV.com

 

 

 

open rar file to see this password

 

 

 

 

The password is : DX-TV.com

 

 

 

 

400p+720p

 

 

 

 

 

Uploaded.net + rapidgator.net

 

 

 

 

 

 

http://shrt10.com/7sDBXeY

 

 

 

http://shrt10.com/qZ2K

 

 

http://shrt10.com/4uZg3

 

 

 

http://shrt10.com/Q7r0

 

 

 

 

Watch WWE Smackdown Live 2018 01 30 HDTV Ebi /720p