Watch WWE SmackDown Live 2017 12 12 HDTV NWCHD /720p

Watch WWE SmackDown Live 2017 12 12 HDTV NWCHD /720p

 

 

 

 

 

 

wwe

 

 

 

 

 

 

Complete name : WWE.SmackDown.Live.2017.12.12.HDTV.x264-NWCHD.mp4
Format : MPEG-4
Format profile : Base Media
Codec ID : isom
File size : 1 003 MiB
Duration : 1h 27mn
Overall bit rate : 1 598 Kbps
Writing application : Lavf56.40.101

Video
ID : 1
Format/Info : Advanced Video Codec
Codec ID : avc1
Codec ID/Info : Advanced Video Coding
Duration : 1h 27mn
Bit rate mode : Variable
Bit rate : 1 400 Kbps
Width : 704 pixels
Height : 400 pixels
Display aspect ratio : 16:9
Frame rate mode : Variable
Frame rate : 29.970 fps
Minimum frame rate : 29.297 fps
Maximum frame rate : 29.970 fps
Color space : YUV
Chroma subsampling : 4:2:0
Bit depth : 8 bits
Scan type : Progressive
Bits/(Pixel*Frame) : 0.166
Stream size : 877 MiB (87%)

Audio
ID : 2
Format/Info : Advanced Audio Codec
Codec ID : 40
Duration : 1h 27mn
Bit rate mode : Variable
Bit rate : 192 Kbps
Maximum bit rate : 200 Kbps
Channel(s) : 2 channels
Channel positions : Front: L R
Sampling rate : 48.0 KHz
Compression mode : Lossy
Stream size : 120 MiB (12%)

 

 

 

 

 
Complete name : WWE.SmackDown.Live.2017.12.12.720p.HDTV.x264-NWCHD.mp4
Format profile : Base Media
Codec ID : isom
File size : 2.88 GiB
Duration : 1h 27mn
Overall bit rate : 4 692 Kbps
Writing application : Lavf56.40.101

Video
ID : 1
Format/Info : Advanced Video Codec
Codec ID : avc1
Codec ID/Info : Advanced Video Coding
Duration : 1h 27mn
Bit rate mode : Variable
Bit rate : 4 500 Kbps
Width : 1 280 pixels
Height : 720 pixels
Display aspect ratio : 16:9
Frame rate mode : Variable
Frame rate : 29.970 fps
Minimum frame rate : 29.297 fps
Maximum frame rate : 29.970 fps
Color space : YUV
Chroma subsampling : 4:2:0
Bit depth : 8 bits
Scan type : Progressive
Bits/(Pixel*Frame) : 0.163
Stream size : 2.75 GiB (96%)

Audio
ID : 2x
Format/Info : Advanced Audio Codec
Codec ID : 40
Duration : 1h 27mn
Bit rate mode : Variable
Bit rate : 192 Kbps
Maximum bit rate : 200 Kbps
Channel(s) : 2 channels
Channel positions : Front: L R
Sampling rate : 48.0 KHz
Compression mode : Lossy
Stream size : 120 MiB (4%)

 

 

 

 

 

 

 

 

 

 

 

 

 

Watch WWE SmackDown Live 2017 12 12 HDTV NWCHD /720p

 

 

 

 

Watch online

 

 

Waiting finish converting video

 

 

Server 1

 

 

 

 

 

 

 

 

 

 

 

 

 

 

 

 

 

 

 

 

Server 2

 

 

 

 

 

 

 

 

 

 

 


 

 

 

 

Srver 3

 

 

 

 

 

 

 

 

 

 

 

 

 


 

 

 

 

Uploaded By Site DX-TV.com

 

 

 

open rar file to see this password

 

 

 

 

The password is : DX-TV.com

 

 

 

 

400p+720p

 

 

 

 

rapidgator.net

 

 

 

 

 

 

 

http://shrt10.com/DWpBfN

 

 

 

http://shrt10.com/vj4Z2

 

 

 

 

 

 

 

Watch WWE SmackDown Live 2017 12 12 HDTV NWCHD /720p

Support HVIPS

Please Disable Ad-Block To View This site. just help us to continue this work