Watch WWE Smackdown Live 2017 11 21 HDTV Ebi /720p

Watch WWE Smackdown Live 2017 11 21 HDTV Ebi /720p

 

 

 

 

 

 

wwe

 

 

 

 

 

 

 

Complete name : WWE.Smackdown.Live.2017.11.21.HDTV.x264-Ebi.mp4
Format : MPEG-4
Codec ID : mp42
File size : 909 MiB
Duration : 1h 26mn
Overall bit rate : 1 466 Kbps

Video
ID : 1
Format : AVC
Duration : 1h 26mn
Bit rate mode : Variable
Bit rate : 1 300 Kbps
Width : 712 pixels
Height : 400 pixels
Display aspect ratio : 16:9
Frame rate mode : Constant
Frame rate : 29.970 fps
Color space : YUV
Chroma subsampling : 4:2:0
Bit depth : 8 bits
Scan type : Progressive
Bits/(Pixel*Frame) : 0.152
Stream size : 806 MiB (89%)

Audio
ID : 2
Format : AAC
Format profile : LC
Codec ID : 40
Duration : 1h 26mn
Bit rate mode : Variable
Bit rate : 160 Kbps
Channel(s) : 2 channels
Channel positions : Front: L R
Sampling rate : 48.0 KHz
Compression mode : Lossy
Stream size : 98.9 MiB (11%)
Title : Stereo

 

 

 

 

 

 
Complete name : WWE.Smackdown.Live.2017.11.21.720p.HDTV.x264-Ebi.mp4
Format : MPEG-4
Codec ID : mp42
File size : 2.84 GiB
Duration : 1h 26mn
Overall bit rate : 4 696 Kbps

Video
ID : 1
Format : AVC
Bit rate mode : Variable
Bit rate : 4 500 Kbps
Width : 1 280 pixels
Height : 720 pixels
Display aspect ratio : 16:9
Frame rate mode : Constant
Frame rate : 29.970 fps
Color space : YUV
Chroma subsampling : 4:2:0
Bit depth : 8 bits
Scan type : Progressive
Bits/(Pixel*Frame) : 0.163
Stream size : 2.72 GiB (96%)

Audio
ID : 2
Format : AAC
Format profile : LC
Codec ID : 40
Duration : 1h 26mn
Bit rate mode : Variable
Bit rate : 192 Kbps
Channel(s) : 2 channels
Channel positions : Front: L R
Sampling rate : 48.0 KHz
Compression mode : Lossy
Stream size : 119 MiB (4%)
Title : Stereo

 

 

 

 

 

 

 

 

 

Watch WWE Smackdown Live 2017 11 21 HDTV Ebi /720p

 

 

 

 

Watch online

 

 

Waiting finish converting video

 

 

Server 1

 

 

 

 

 

 

 

 

 

 

 

 

 

 

 

 

 

 

 

 

 

 

Srver 2

 

 

 

 

 

 

 

 


 

 

 

 

 

 

 

 

Server 3

 

 

 

 

 

 

 

 

 

 


 

 

 

 

 

 

Uploaded By Site DX-TV.com

 

 

 

open rar file to see this password

 

 

 

 

The password is : DX-TV.com

 

 

 

 

400p+720p

 

 

 

 

Uploaded.net

 

 

 

 

 

 

 

http://shrt10.com/zuqa9A

 

 

 

 

 

http://shrt10.com/Y15tge

 

 

 

 

 

 

rapidgator.net

 

 

 

 

 

 

http://shrt10.com/xZje9

 

 

 

 

 

http://shrt10.com/29qu

 

 

 

 

 

 

Watch WWE Smackdown Live 2017 11 21 HDTV Ebi /720p

Support HVIPS

Please Disable Ad-Block To View This site. just help us to continue this work