Watch WWE Royal Rumble 2018 Kickoff WEB HEEL /720p

Watch WWE Royal Rumble 2018 Kickoff WEB HEEL /720p

 

 

 

 

 

 

wwe

 

 

 

 

 

Title: WWE.Royal.Rumble.2018.Kickoff.WEB.h264-HEEL
Released: 2018.01.28
Source: WWE Network
Resolution: 896 x 504 @ 29.970 FPS
Video: H.264 @ 1800 kbps
Audio: AAC @ 96 kbps
Size: 1.50 GB
Runtime: 1h 59mn
 

 

 

 

 

 

 

 
Complete name : WWE.Royal.Rumble.2018.Kickoff.720p.WEB.h264-HEEL.mp4
Format : MPEG-4
Format profile : Base Media
Codec ID : isom
File size : 3.75 GiB
Duration : 1h 59mn
Overall bit rate : 4 506 Kbps
Writing application : Lavf58.2.103

Video
ID : 1
Format : AVC
Format/Info : Advanced Video Codec
Codec ID : avc1
Codec ID/Info : Advanced Video Coding
Duration : 1h 59mn
Duration_LastFrame : -3ms
Bit rate mode : Constant
Bit rate : 4 372 Kbps
Width : 1 280 pixels
Height : 720 pixels
Display aspect ratio : 16:9
Frame rate mode : Variable
Frame rate : 29.970 fps
Minimum frame rate : 19.694 fps
Maximum frame rate : 29.970 fps
Color space : YUV
Chroma subsampling : 4:2:0
Bit depth : 8 bits
Scan type : Progressive
Bits/(Pixel*Frame) : 0.158
Stream size : 3.63 GiB (97%)

Audio
ID : 2
Format : AAC
Format/Info : Advanced Audio Codec
Format profile : LC
Codec ID : 40
Duration : 1h 59mn
Bit rate mode : Constant
Bit rate : 125 Kbps
Channel(s) : 2 channels
Channel positions : Front: L R
Sampling rate : 48.0 KHz
Compression mode : Lossy
Stream size : 107 MiB (3%)
Language : English

 

 

 

 

 

 

 

 

 

 

 

Watch WWE Royal Rumble 2018 Kickoff WEB HEEL /720p

 

 

 

 

Watch online

 

 

Waiting finish converting video

 

 

Server 1

 

 

 

 

 

 

 

 

 

 

 

 

 

 

 

 

 

 

Server 2

 

 

 

 

 

 

 


 

 

 

 

Uploaded By Site DX-TV.com

 

 

 

open rar file to see this password

 

 

 

 

The password is : DX-TV.com

 

 

 

 

400p+720p

 

 

 

 

 

Uploaded.net + rapidgator.net

 

 

 

 

 

 

http://shrt10.com/ow47

 

 

http://shrt10.com/MKbYhz

 

 

 

http://shrt10.com/NO7WiKlk

 

 

http://shrt10.com/diPtP6

 

 

 

 

 

Watch WWE Royal Rumble 2018 Kickoff WEB HEEL /720p

Support HVIPS

Please Disable Ad-Block To View This site. just help us to continue this work