Watch WWE Ride Along S03E03 Path to Providence 720p WEB HEEL

Watch WWE Ride Along S03E03 Path to Providence 720p WEB HEEL

 

 

 

 

 

wwe

 

 

 

 

 

 

 

 
Complete name : WWE.Ride.Along.S03E03.Path.to.Providence.720p.WEB.h264-HEEL.mp4
Format : MPEG-4
Format profile : Base Media
Codec ID : isom
File size : 588 MiB
Duration : 18mn 24s
Overall bit rate : 4 465 Kbps
Writing application : Lavf58.2.103

Video
ID : 1
Format : AVC
Format/Info : Advanced Video Codec
Codec ID : avc1
Codec ID/Info : Advanced Video Coding
Duration : 18mn 24s
Bit rate mode : Variable
Bit rate : 4 363 Kbps
Maximum bit rate : 5 500 Kbps
Width : 1 280 pixels
Height : 720 pixels
Display aspect ratio : 16:9
Frame rate mode : Constant
Frame rate : 29.970 fps
Color space : YUV
Chroma subsampling : 4:2:0
Bit depth : 8 bits
Scan type : Progressive
Bits/(Pixel*Frame) : 0.158
Stream size : 574 MiB (98%)

Audio
ID : 2
Format : AAC
Format/Info : Advanced Audio Codec
Format profile : LC
Codec ID : 40
Duration : 18mn 24s
Bit rate mode : Variable
Bit rate : 93.5 Kbps
Maximum bit rate : 100 Kbps
Channel(s) : 2 channels
Channel positions : Front: L R
Sampling rate : 48.0 KHz
Compression mode : Lossy
Stream size : 12.3 MiB (2%)

Text
ID : 1-608-1
Format : EIA-608
Muxing mode : AVC / SCTE 128 / DTVCC Transport
Muxing mode, more info : Muxed in Video #1
Duration : 18mn 24s
Stream size : 0.00 Byte (0%)
ContentInfo : No content

 

 

 

 

 

 

 

 

 

 

 

 

 

 

 

 

 

Watch WWE Ride Along S03E03 Path to Providence 720p WEB HEEL

 

 

 

 

Watch online

 

 

Waiting finish converting video

 

 

Server 1

 

 

 

 

 

 

 

 

 

 

 

 

 

 

 

 

 

 

 

 

Server 2

 

 

 

 

 

 

 

 

 


 

 

 

 

 

 

 

Srver 3

 

 

 

 

 

 

 

 

 


 

 

 

 

 

 

 

 

 

Uploaded By Site DX-TV.com

 

 

 

open rar file to see this password

 

 

 

 

The password is : DX-TV.com

 

 

 

 

720p

 

 

 

rapidgator.net

 

 

 

 

 

 

 

 

http://shrt10.com/2HA1hQJX

 

 

 

 

 

 

Watch WWE Ride Along S03E03 Path to Providence 720p WEB HEEL

Support HVIPS

Please Disable Ad-Block To View This site. just help us to continue this work