Watch WWE RAW 25th Anniversary 2018 01 22 HDTV x264 DX-TV /720p

Watch WWE RAW 25th Anniversary 2018 01 22 HDTV x264 DX-TV /720p

 

 

 

 

 

 

wwe

 

 

 

 

 

 

[EVENT]………..: WWE RAW 25th Anniversary 2018 01 22 HDTV x264 DX-TV mp4
[RELEASED]……..: 2018.01.22
[SOURCE]……….: 720p KYR
[CONTAINER]…….: mp4
[SIZE]…………: 1.60 GB
[Capper Group]….: DX-TV
[Duration]……..: 2 h 19 m
[RESOLUTION]……: 720 x 480 {16:9}@ 30.000 FPS
[VIDEO]………..: x264 @ 1500 kbps
[AUDIO]………..: AAC @ 160 kbps
[language]……..: English
 

 

 

 

 

 

 

 

 
Complete name : wwe.raw.2018.01.22.raw.25th.anniversary.720p.hdtv.x264-kyr.mkv
Format : Matroska
File size : 4.77 GiB
Duration : 2h 19mn
Overall bit rate : 4 879 Kbps

Video
ID : 1
Format : AVC
Format/Info : Advanced Video Codec
Codec ID : V_MPEG4/ISO/AVC
Duration : 2h 19mn
Bit rate : 4 398 Kbps
Width : 1 280 pixels
Height : 720 pixels
Display aspect ratio : 16:9
Frame rate : 59.940 fps
Color space : YUV
Chroma subsampling : 4:2:0
Bit depth : 8 bits
Scan type : Progressive
Bits/(Pixel*Frame) : 0.080
Stream size : 4.30 GiB (90%)
Audio
ID : 2
Format : AC-3
Format/Info : Audio Coding 3
Mode extension : CM (complete main)
Codec ID : A_AC3
Duration : 2h 19mn
Bit rate mode : Constant
Bit rate : 384 Kbps
Channel(s) : 6 channels
Channel positions : Front: L C R, Side: L R, LFE
Sampling rate : 48.0 KHz
Bit depth : 16 bits
Compression mode : Lossy
Stream size : 384 MiB (8%)

 

 

 

 

 

 

 

 

 

 

 

 

 

 

Watch WWE RAW 25th Anniversary 2018 01 22 HDTV x264 DX-TV /720p

 

 

 

 

Watch online

 

 

Waiting finish converting video

 

 

Server 1

 

 

 

 

 

 

 

 

 

 

 

 

 

 

 

 

 

 

 

 

 

 

 

Srver 2

 

 

 

 

 

 

 

 

 


 

 

 

 

 

 

 

Uploaded By Site DX-TV.com

 

 

 

open rar file to see this password

 

 

 

 

The password is : DX-TV.com

 

 

 

 

400p+720p

 

 

 

 

Uploaded.net + rapidgator.net

 

 

 

 

 

 

 

 

http://shrt10.com/J1ctfYly

 

 

http://shrt10.com/YvUA5OOK

 

 

 

 

http://shrt10.com/Q4xDoo

 

 

http://shrt10.com/sOwM

 

 

 

 

 

 

 

 

 

 

 

 

 

 

 

Watch WWE RAW 25th Anniversary 2018 01 22 HDTV x264 DX-TV /720p

Support HVIPS

Please Disable Ad-Block To View This site. just help us to continue this work