Watch WWE RAW 2018 01 29 HDTV Ebi /720p

Watch WWE RAW 2018 01 29 HDTV Ebi /720p

 

 

 

 

 

 

wwe

 

 

 

 

 

WWE.RAW.2018.01.29.HDTV.x264-Ebi
Release Info:
Show Name: WWE Monday Night RAW
Genre: Wrestling
Release Date: 2018-01-30(UK)
Air Date: 2018-01-29US)
Source : HDTV
Container: MP4
Video: x264, 1470Kbps, 29,970fps, 712×400, 16:9
Audio: AAC, 160Kbps, 48KHz, 2ch
Size: 1.50 GB
Runtime: 2h 25mn
 

 

 

Complete name : wwe.raw.2018.01.29.720p.hdtv.x264-kyr.mkv
Format : Matroska
File size : 4.23 GiB
Duration : 2h 14mn
Overall bit rate : 4 503 Kbps 

Video
ID : 1
Format : AVC
Format/Info : Advanced Video Codec 
Codec ID : V_MPEG4/ISO/AVC
Duration : 2h 14mn
Bit rate : 4 029 Kbps
Width : 1 280 pixels
Height : 720 pixels
Display aspect ratio : 16:9
Frame rate : 59.940 fps
Color space : YUV
Chroma subsampling : 4:2:0
Bit depth : 8 bits
Scan type : Progressive
Bits/(Pixel*Frame) : 0.073
Stream size : 3.78 GiB (89%) 

ID : 2
Format : AC-3
Format/Info : Audio Coding 3
Mode extension : CM (complete main)
Codec ID : A_AC3
Duration : 2h 14mn
Bit rate mode : Constant
Bit rate : 384 Kbps
Channel(s) : 6 channels
Channel positions : Front: L C R, Side: L R, LFE
Sampling rate : 48.0 KHz
Bit depth : 16 bits
Compression mode : Lossy
Stream size : 369 MiB (9%)

 

 

 

 

 

 

 

 

 

 

 

 

Watch WWE RAW 2018 01 29 HDTV Ebi /720p

 

 

 

 

Watch online

 

 

Waiting finish converting video

 

 

Server 1

 

 

 

 

 

 

 

 

 

 

 

 

 

 

 

 

 

Server 2

 

 

 

 

 

 


 

 

 

 

 

 

 

Uploaded By Site DX-TV.com

 

 

 

open rar file to see this password

 

 

 

 

The password is : DX-TV.com

 

 

 

 

400p+720p

 

 

 

 

 

Uploaded.net + rapidgator.net

 

 

 

 

 

 

http://shrt10.com/iL3DZQJ

 

 

 

http://shrt10.com/CaM8S

 

 

 

http://shrt10.com/VJv2q

 

 

 

http://shrt10.com/jvGyGeV

 

 

 

 

 

 

Watch WWE RAW 2018 01 29 HDTV Ebi /720p