Watch WWE RAW 2018 01 22 HDTV Ebi /720p

Watch WWE RAW 2018 01 22 HDTV Ebi /720p

 

 

 

 

 

 

wwe

 

 

 

 

 

 

WWE.RAW.2018.01.22.HDTV.x264-Ebi
Release Info:
Show Name: WWE Monday Night RAW
Genre: Wrestling
Release Date: 2018-01-23(UK)
Air Date: 2018-01-22US)
Source : HDTV
Container: MP4
Video: x264, 1470Kbps, 29,970fps, 712×400, 16:9
Audio: AAC, 160Kbps, 48KHz, 2ch
Size: 1.50 GB
Runtime: 2h 25mn
 

 

 

 

 

 

 

 

 

 

 
Complete name : WWE.RAW.2018.01.22.720p.HDTV.x264-Ebi.mp4
Format : MPEG-4
Format profile : Base Media / Version 2
Codec ID : mp42
File size : 4.81 GiB
Duration : 2h 25mn
Overall bit rate : 4 717 Kbps

Video
ID : 1
Format : AVC
Format/Info : Advanced Video Codec 
Codec ID : avc1
Codec ID/Info : Advanced Video Coding
Duration : 2h 25mn
Bit rate mode : Variable
Bit rate : 4 500 Kbps
Width : 1 280 pixels
Height : 720 pixels
Display aspect ratio : 16:9
Frame rate mode : Constant
Frame rate : 29.970 fps
Color space : YUV
Chroma subsampling : 4:2:0
Bit depth : 8 bits
Scan type : Progressive
Bits/(Pixel*Frame) : 0.163
Stream size : 4.60 GiB (96%)

Audio
ID : 2
Format : AAC
Format/Info : Advanced Audio Codec
Format profile : LC
Codec ID : 40
Duration : 2h 25mn
Bit rate mode : Variable
Bit rate : 192 Kbps
Channel(s) : 2 channels
Channel positions : Front: L R
Sampling rate : 48.0 KHz
Compression mode : Lossy
Stream size : 200 MiB (4%)
Title : Stereo

 

 

 

 

 

 

 

 

 

 

 

 

Watch WWE RAW 2018 01 22 HDTV Ebi /720p

 

 

 

 

Watch online

 

 

Waiting finish converting video

 

 

Server 1

 

 

 

 

 

 

 

 

 

 

 

 

 

 

 

 

 

 

 

 

 

 

 

 

 

 

 

 

 

 

 

Srver 2

 

 

 

 

 

 

 

 

 

 

 


 

 

 

 

 

 

 

 

 

 

Uploaded By Site DX-TV.com

 

 

 

open rar file to see this password

 

 

 

 

The password is : DX-TV.com

 

 

 

 

400p+720p

 

 

 

 

Uploaded.net + rapidgator.net

 

 

 

 

 

 

 

 

http://shrt10.com/ukMtLHAA

 

 

http://shrt10.com/x4UMT

 

 

 

 

 

http://shrt10.com/jRs1RpQ

 

 

http://shrt10.com/aDyiz

 

 

 

 

 

 

 

 

 

 

 

 

 

 

 

 

 

 

 

Watch WWE RAW 2018 01 22 HDTV Ebi /720p

Support HVIPS

Please Disable Ad-Block To View This site. just help us to continue this work