Watch WWE NXT 2018 01 31 WWE Network HDTV Ebi /720p

Watch WWE NXT 2018 01 31 WWE Network HDTV Ebi /720p

 

 

 

 

 

 

wwe

 

 

 

 

 

 

 
Complete name : WWE.NXT.2018.01.31.WWE.Network.HDTV.x264-Ebi.mp4
Format : MPEG-4
Format profile : Base Media / Version 2
Codec ID : mp42
File size : 540 MiB
Duration : 51mn 45s
Overall bit rate : 1 460 Kbps
Encoded date : UTC 2018-02-01 02:36:20
Tagged date : UTC 2018-02-01 02:36:20

Video
ID : 1
Format : AVC
Format/Info : Advanced Video Codec
Codec ID : avc1
Codec ID/Info : Advanced Video Coding
Duration : 51mn 45s
Bit rate mode : Variable
Bit rate : 1 300 Kbps
Width : 712 pixels
Height : 400 pixels
Display aspect ratio : 16:9
Frame rate mode : Constant
Frame rate : 29.970 fps
Color space : YUV
Chroma subsampling : 4:2:0
Bit depth : 8 bits
Scan type : Progressive
Bits/(Pixel*Frame) : 0.152
Stream size : 479 MiB (89%)

Audio
ID : 2
Format : AAC
Format/Info : Advanced Audio Codec
Format profile : LC
Codec ID : 40
Duration : 51mn 45s
Bit rate mode : Variable
Bit rate : 160 Kbps
Channel(s) : 2 channels
Channel positions : Front: L R
Sampling rate : 48.0 KHz
Compression mode : Lossy
Stream size : 59.4 MiB (11%)
Title : Stereo
Encoded date : UTC 2018-02-01 02:36:20
Tagged date : UTC 2018-02-01 02:36:20

 

 

 

 

WWE.NXT.2018.01.31.720p.WWE.Network.HDTV.x264-Ebi 
Release Info: 
Show Name: WWE NXT 
Genre: Wrestling 
Release Date: 2018-02-01(UK) 
Air Date: 2018-01-31(US) 
Source : HDTV 
Container: MP4 
Video: x264, 4674Kbps, 29,970fps, 1280×720, 16:9 
Audio: AAC, 192bps, 48KHz, 2ch 
Size: 1.69 GB 
Runtime: 51mn 45s

 

 

 

 

 

 

 

 

 

 

 

 

 

Watch WWE NXT 2018 01 31 WWE Network HDTV Ebi /720p

 

 

 

 

Watch online

 

 

Waiting finish converting video

 

 

Server 1

 

 

 

 

 

 

 

 

 

 

 

 

 

 

 

 

 

Server 2

 

 

 

 

 

 


 

 

 

 

 

Uploaded By Site DX-TV.com

 

 

 

open rar file to see this password

 

 

 

 

The password is : DX-TV.com

 

 

 

 

400p+720p

 

 

 

 

 

Uploaded.net + rapidgator.net

 

 

 

 

 

 

http://shrt10.com/Ot3EY

 

 

 

http://shrt10.com/nRHD

 

 

 

http://shrt10.com/nzqz5O

 

 

 

http://shrt10.com/uwZCxG

 

 

 

 

 

 

 

Watch WWE NXT 2018 01 31 WWE Network HDTV Ebi /720p

Support HVIPS

Please Disable Ad-Block To View This site. just help us to continue this work