Watch WWE NXT 2017 12 20 WEB HEEL /720p

Watch WWE NXT 2017 12 20 WEB HEEL /720p

 

 

 

 

 

 

wwe

 

 

 

 

 

 

 

 

 

 

 

 

 
Complete name : WWE.NXT.2017.12.20.WEB.h264-HEEL.mp4
Format : MPEG-4
Format profile : Base Media
Codec ID : isom
File size : 938 MiB
Duration : 1h 12mn
Overall bit rate : 1 806 Kbps
Writing application : Lavf58.2.103

Video
ID : 1
Format : AVC
Duration : 1h 12mn
Bit rate mode : Constant
Bit rate : 1 704 Kbps
Width : 896 pixels
Height : 504 pixels
Display aspect ratio : 16:9
Frame rate mode : Constant
Frame rate : 29.970 fps
Color space : YUV
Chroma subsampling : 4:2:0
Bit depth : 8 bits
Scan type : Progressive
Bits/(Pixel*Frame) : 0.126
Stream size : 885 MiB (94%)

Audio
ID : 2
Format : AAC
Format profile : LC
Codec ID : 40
Duration : 1h 12mn
Bit rate mode : Constant
Bit rate : 93.5 Kbps
Channel(s) : 2 channels
Channel positions : Front: L R
Sampling rate : 48.0 KHz
Compression mode : Lossy
Stream size : 48.6 MiB (5%)
Language : English

 

 

 

 

Title: WWE.NXT.2017.12.20.720p.WEB.h264-HEEL
Released: 2017.12.20
Source: WWE Network
Resolution: 1280 x 720 @ 29.970 FPS
Video: H.264 @ 4500 kbps
Audio: AAC @ 128 kbps
Size: 2.28 GB
Runtime: 1h 13mn
 

 

 

 

 

 

 

Watch WWE NXT 2017 12 20 WEB HEEL /720p

 

 

 

 

Watch online

 

 

Waiting finish converting video

 

 

Server 1

 

 

 

 

 

 

 

 

 

 

 

 

 

 

 

 

 

 

 

 

Server 2

 

 

 

 

 

 

 

 

 

 

 

 

 


 

 

 

 

 

 

 

 

Uploaded By Site DX-TV.com

 

 

 

open rar file to see this password

 

 

 

 

The password is : DX-TV.com

 

 

 

 

400p+720p

 

 

 

 

 

rapidgator.net

 

 

 

 

 

 

 

 

 

http://shrt10.com/TjGvdZ

 

 

 

 

http://shrt10.com/OwI3k0ZZ

 

 

 

 

 

 

 

 

 

 

 

 

Watch WWE NXT 2017 12 20 WEB HEEL /720p

Support HVIPS

Please Disable Ad-Block To View This site. just help us to continue this work