Watch WWE NXT 2017 12 06 WEB /720p mp4

Watch WWE NXT 2017 12 06 WEB /720p mp4

 

 

 

 

 

 

wwe

 

 

 

 

 

 

Complete name : WWE.NXT.2017.12.06.WEB.h264-HEEL.mp4
Format : MPEG-4
Format profile : Base Media
Codec ID : isom
File size : 746 MiB
Duration : 58mn 49s
Overall bit rate : 1 772 Kbps
Writing application : Lavf58.2.103

Video
ID : 1
Format : AVC
Format/Info : Advanced Video Codec
Codec ID : avc1
Codec ID/Info : Advanced Video Coding
Duration : 58mn 49s
Bit rate mode : Variable
Bit rate : 1 672 Kbps
Maximum bit rate : 2 125 Kbps
Width : 960 pixels
Height : 540 pixels
Display aspect ratio : 16:9
Frame rate mode : Constant
Frame rate : 29.970 fps
Color space : YUV
Chroma subsampling : 4:2:0
Bit depth : 8 bits
Scan type : Progressive
Bits/(Pixel*Frame) : 0.108
Stream size : 703 MiB (94%)

Audio
ID : 2
Format/Info : Advanced Audio Codec
Format profile : LC
Codec ID : 40
Duration : 58mn 49s
Bit rate mode : Variable
Bit rate : 93.5 Kbps
Maximum bit rate : 97.9 Kbps
Channel(s) : 2 channels
Channel positions : Front: L R
Sampling rate : 48.0 KHz
Compression mode : Lossy
Stream size : 39.3 MiB (5%)

 

 

 

 

 

 
Complete name : WWE.NXT.2017.12.06.720p.WEB.h264-HEEL.mp4
Format : MPEG-4
Format profile : Base Media
Codec ID : isom
File size : 1.81 GiB
Duration : 58mn 49s
Overall bit rate : 4 407 Kbps
Writing application : Lavf58.2.103

Video
ID : 1
Format/Info : Advanced Video Codec
Codec ID : avc1
Codec ID/Info : Advanced Video Coding
Duration : 58mn 49s
Bit rate mode : Variable
Bit rate : 4 305 Kbps
Maximum bit rate : 5 500 Kbps
Width : 1 280 pixels
Height : 720 pixels
Display aspect ratio : 16:9
Frame rate mode : Constant
Frame rate : 29.970 fps
Color space : YUV
Chroma subsampling : 4:2:0
Bit depth : 8 bits
Scan type : Progressive
Bits/(Pixel*Frame) : 0.156
Stream size : 1.77 GiB (98%)

Audio
ID : 2
Format/Info : Advanced Audio Codec
Format profile : LC
Codec ID : 40
Duration : 58mn 49s
Bit rate mode : Variable
Bit rate : 93.5 Kbps
Maximum bit rate : 97.9 Kbps
Channel(s) : 2 channels
Channel positions : Front: L R
Sampling rate : 48.0 KHz
Compression mode : Lossy
Stream size : 39.3 MiB (2%)

 

 

 

 

 

 

 

 

 

 

 

 

Watch WWE NXT 2017 12 06 WEB /720p mp4

 

 

 

 

Watch online

 

 

Waiting finish converting video

 

 

Server 1

 

 

 

 

 

 

 

 

 

 

 

 

 

 

 

 

 

 

 

 

Server 2

 

 

 

 

 

 

 

 

 


 

 

 

 

 

 

 

Srver 3

 

 

 

 

 

 

 

 

 


 

 

 

 

 

 

 

 

 

Uploaded By Site DX-TV.com

 

 

 

open rar file to see this password

 

 

 

 

The password is : DX-TV.com

 

 

 

 

400p+720p

 

 

 

Uploaded.net

 

 

 

 

 

 

 

http://shrt10.com/NUJIOM

 

 

 

 

http://shrt10.com/kbeMjZ

 

 

 

 

 

 

 

 

rapidgator.net

 

 

 

 

 

 

 

http://shrt10.com/OUpfkIGd

 

 

 

 

http://shrt10.com/OqSG2Tfn

 

 

 

 

 

 

 

Watch WWE NXT 2017 12 06 WEB /720p mp4

Support HVIPS

Please Disable Ad-Block To View This site. just help us to continue this work