Watch WWE Network Specials Walk with Elias The Documentary 720p WEB HEEL

Watch WWE Network Specials Walk with Elias The Documentary 720p WEB HEEL

 

 

 

 


 

 

 

dx-tv.com

 

 

 

 

Complete name : WWE.Network.Specials.Walk.with.Elias.The.Documentary.720p.WEB.h264-HEEL.mp4
Format : MPEG-4
Format profile : Base Media
Codec ID : isom
File size : 1.19 GiB
Duration : 38mn 14s
Overall bit rate : 4 456 Kbps
Writing application : Lavf58.2.103

Video
ID : 1
Format : AVC
Format/Info : Advanced Video Codec
Codec ID/Info : Advanced Video Coding
Duration : 38mn 14s
Bit rate mode : Variable
Bit rate : 4 354 Kbps
Maximum bit rate : 5 500 Kbps
Width : 1 280 pixels
Height : 720 pixels
Display aspect ratio : 16:9
Frame rate mode : Constant
Frame rate : 29.970 fps
Color space : YUV
Chroma subsampling : 4:2:0
Bit depth : 8 bits
Scan type : Progressive
Bits/(Pixel*Frame) : 0.158
Stream size : 1.16 GiB (98%)

Audio
ID : 2
Format : AAC
Format/Info : Advanced Audio Codec
Format profile : LC
Codec ID : 40
Duration : 38mn 14s
Bit rate mode : Variable
Bit rate : 93.5 Kbps
Maximum bit rate : 102 Kbps
Channel(s) : 2 channels
Channel positions : Front: L R
Sampling rate : 48.0 KHz
Compression mode : Lossy
Stream size : 25.6 MiB (2%)
 

 

 

Watch WWE Network Specials Walk with Elias The Documentary 720p WEB HEEL

 

 

 

 

Watch online

 

 

Waiting finish converting video

 

 

Server 1

 

 

 

 

 

 

 

 

 

 

 

 

 

 

 

 

Server 2

 

 

 

 

 

 

 

 

 

 

 

 

 

Uploaded By Site DX-TV.com

 

 

 

open rar file to see this password

 

 

 

 

The password : DX-TV.com

 

 

 

Uploaded.net + rapidgator.net

 

 

 

 

 

 

http://shrt10.com/vCgIh

 

 

 

 

 

http://shrt10.com/O4EDa

 

 

 

 

 

 

 

 

Watch WWE Network Specials Walk with Elias The Documentary 720p WEB HEEL

This site uses Akismet to reduce spam. Learn how your comment data is processed.

Support HVIPS

Please Disable Ad-Block To View This site. just help us to continue this work