Watch WWE Monday Night Raw 2018 02 26 HDTV NWCHD

Watch WWE Monday Night Raw 2018 02 26 HDTV NWCHD

 

 

 

 

 

 

wwe

 

 

 

 

 

Complete name : WWE.Monday.Night.Raw.2018.02.26.HDTV.x264-NWCHD.mp4
Format : MPEG-4
Format profile : Base Media
Codec ID : isom
File size : 1.52 GiB
Duration : 2h 16mn
Overall bit rate : 1 595 Kbps
Writing application : Lavf58.9.100

Video
ID : 1
Format : AVC
Format/Info : Advanced Video Codec
Codec ID : avc1
Codec ID/Info : Advanced Video Coding
Duration : 2h 16mn
Bit rate mode : Variable
Bit rate : 1 400 Kbps
Width : 704 pixels
Height : 400 pixels
Display aspect ratio : 16:9
Frame rate mode : Variable
Frame rate : 29.970 fps
Minimum frame rate : 29.155 fps
Maximum frame rate : 29.970 fps
Color space : YUV
Chroma subsampling : 4:2:0
Bit depth : 8 bits
Scan type : Progressive
Bits/(Pixel*Frame) : 0.166
Stream size : 1.33 GiB (87%)

Audio
ID : 2
Format : AAC
Format/Info : Advanced Audio Codec
Format profile : LC
Codec ID : 40
Duration : 2h 16mn
Bit rate mode : Constant
Bit rate : 192 Kbps
Channel(s) : 2 channels
Channel positions : Front: L R
Sampling rate : 48.0 KHz
Compression mode : Lossy
Stream size : 187 MiB (12%)

 

 

 

 

 

 

 

 

 

 

 

 

 

Watch WWE Monday Night Raw 2018 02 26 HDTV NWCHD

 

 

 

 

Watch online

 

 

Waiting finish converting video

 

 

Server 1

 

 

 

 

 

 

 

 

 

&nbsp

 

 

 

 

 

 

 

 

Server 2

 

 

 

 

 

 

 


 

 

 

 

 

Uploaded By Site DX-TV.com

 

 

 

open rar file to see this password

 

 

 

 

The password is : DX-TV.com

 

 

 

 

 

 

 

Uploaded.net + rapidgator.net

 

 

 

 

 

 

http://shrt10.com/AnWWEg

 

 

 

 

 

 

 

http://shrt10.com/XlCwRcE7

 

 

 

 

 

 

 

Watch WWE Monday Night Raw 2018 02 26 HDTV NWCHD

Support HVIPS

Please Disable Ad-Block To View This site. just help us to continue this work