Watch WWE Monday Night Raw 2018 01 01 HDTV NWCHD /720p

Watch WWE Monday Night Raw 2018 01 01 HDTV NWCHD /720p

 

 

 

 

 

 

wwe

 

 

 

 

 

 

 

File Name – WWE.Monday.Night.Raw.2018.01.01.HDTV.x264-NWCHD
Released – 01.01.2018
Aired – 01.01.2018
Size – 1.48 GB
Source – USA HD
Container – MP4
Resolution – 704 x 400 (16:9) @ 29.970 FPS
Video – x264 @ 1400 kbps
Audio – AAC 192 kbps
Length – 02:12:40 min
 

 

 

 

 
Complete name : WWE.Monday.Night.Raw.2018.01.01.720p.HDTV.x264-NWCHD.mp4
Format : MPEG-4
Format profile : Base Media
Codec ID : isom
File size : 4.35 GiB
Duration : 2h 12mn
Overall bit rate : 4 699 Kbps
Writing application : Lavf56.40.101

Video
ID : 1
Format : AVC
Format/Info : Advanced Video Codec
Codec ID : avc1
Codec ID/Info : Advanced Video Coding
Duration : 2h 12mn
Bit rate mode : Variable
Bit rate : 4 500 Kbps
Width : 1 280 pixels
Height : 720 pixels
Display aspect ratio : 16:9
Frame rate mode : Variable
Frame rate : 29.970 fps
Minimum frame rate : 29.183 fps
Maximum frame rate : 29.970 fps
Color space : YUV
Chroma subsampling : 4:2:0
Bit depth : 8 bits
Scan type : Progressive
Bits/(Pixel*Frame) : 0.163
Stream size : 4.17 GiB (96%)

Audio
ID : 2
Format : AAC
Format/Info : Advanced Audio Codec
Format profile : LC
Codec ID : 40
Duration : 2h 12mn
Bit rate mode : Variable
Bit rate : 192 Kbps
Maximum bit rate : 200 Kbps
Channel(s) : 2 channels
Channel positions : Front: L R
Sampling rate : 48.0 KHz
Compression mode : Lossy
Stream size : 182 MiB (4%)

 

 

 

 

 

 

 

 

 

 

 

 

Watch WWE Monday Night Raw 2018 01 01 HDTV NWCHD /720p

 

 

 

 

Watch online

 

 

Waiting finish converting video

 

 

Server 1

 

 

 

 

 

 

 

 

 

 

 

 

 

 

 

 

 

 

 

 

 

 

 

 

 

 

Server 2

 

 

 

 

 

 

 

 

 

 

 

 

 


 

 

 

 

 

 

 

Uploaded By Site DX-TV.com

 

 

 

open rar file to see this password

 

 

 

 

The password is : DX-TV.com

 

 

 

 

400p+720p

 

 

 

 

 

Uploaded.net + rapidgator.net

 

 

 

 

 

 

 

 

 

http://shrt10.com/YjhZ

 

 

 

http://shrt10.com/4ae7

 

 

http://shrt10.com/mp9zI

 

 

http://shrt10.com/4zb9rknh

 

 

 

 

 

 

 

 

 

 

 

 

Watch WWE Monday Night Raw 2018 01 01 HDTV NWCHD /720p