Watch WWE Monday Night Raw 2017 12 25 HDTV NWCHD /720p

Watch WWE Monday Night Raw 2017 12 25 HDTV NWCHD /720p

 

 

 

 

 

 

wwe

 

 

 

 

 

 

 

 

File Name – WWE.Monday.Night.Raw.2017.12.25.HDTV.x264-NWCHD
Released – 12.25.2017
Aired – 12.25.2017
Size – 1.66 GB
Source – USA HD
Container – MP4
Resolution – 704 x 400 (16:9) @ 29.970 FPS
Video – x264 @ 1400 kbps
Audio – AAC 192 kbps
Length – 02:29:43 min
 

 

 

 

 

 
Complete name : wwe.raw.2017.12.25.720p.hdtv.x264-kyr.mkv
Format : Matroska
File size : 5.34 GiB
Duration : 2h 29mn
Overall bit rate : 5 116 Kbps

Video
ID : 1
Format : AVC
Format/Info : Advanced Video Codec
Codec ID : V_MPEG4/ISO/AVC
Duration : 2h 29mn
Bit rate : 4 630 Kbps
Width : 1 280 pixels
Height : 720 pixels
Display aspect ratio : 16:9
Frame rate : 59.940 fps
Color space : YUV
Chroma subsampling : 4:2:0
Bit depth : 8 bits
Scan type : Progressive
Bits/(Pixel*Frame) : 0.084
Stream size : 4.84 GiB (91%)

Audio
ID : 2
Format : AC-3
Format/Info : Audio Coding 3
Mode extension : CM (complete main)
Codec ID : A_AC3
Duration : 2h 29mn
Bit rate mode : Constant
Bit rate : 384 Kbps
Channel(s) : 6 channels
Sampling rate : 48.0 KHz
Bit depth : 16 bits
Compression mode : Lossy
Stream size : 411 MiB (8%)

 

 

 

 

 

 

 

 

 

 

Watch WWE Monday Night Raw 2017 12 25 HDTV NWCHD /720p

 

 

 

 

Watch online

 

 

Waiting finish converting video

 

 

Server 1

 

 

 

 

 

 

 

 

 

 

 

 

 

 

 

 

 

 

 

 

Server 2

 

 

 

 

 

 

 

 

 

 

 

 


 

 

 

 

 

 

 

 

Uploaded By Site DX-TV.com

 

 

 

open rar file to see this password

 

 

 

 

The password is : DX-TV.com

 

 

 

 

400p+720p

 

 

 

 

 

Uploaded.net + rapidgator.net

 

 

 

 

 

 

 

 

 

http://shrt10.com/SSsHj4O9

 

 

http://shrt10.com/KU8AecV

 

 

http://shrt10.com/FYSCO1c

 

 

http://shrt10.com/LS49P

 

 

http://shrt10.com/CY2MUj01

 

 

http://shrt10.com/G0qXIY

 

 

 

 

 

 

 

 

 

 

 

 

 

Watch WWE Monday Night Raw 2017 12 25 HDTV NWCHD /720p