Watch WWE Monday Night Raw 2017 12 04 HDTV NWCHD /720p

Watch WWE Monday Night Raw 2017 12 04 HDTV NWCHD /720p

 

 

 

 

 

 

wwe

 

 

 

 

 

 

 

Complete name : WWE.Monday.Night.Raw.2017.12.04.HDTV.x264-NWCHD.mp4
Format : MPEG-4
Format profile : Base Media
Codec ID : isom
File size : 1.54 GiB
Duration : 2h 17mn 

Video
ID : 1
Format : AVC 
Duration : 2h 17mn
Bit rate mode : Variable
Bit rate : 1 400 Kbps
Width : 704 pixels
Height : 400 pixels
Display aspect ratio : 16:9
Frame rate mode : Variable
Frame rate : 29.970 fps
Minimum frame rate : 18.785 fps
Maximum frame rate : 29.970 fps
Color space : YUV
Chroma subsampling : 4:2:0
Bit depth : 8 bits
Scan type : Progressive
Bits/(Pixel*Frame) : 0.166
Stream size : 1.35 GiB (87%)

Audio
ID : 2
Format : AAC 
Format profile : LC
Codec ID : 40
Duration : 2h 17mn
Bit rate mode : Variable
Bit rate : 192 Kbps
Maximum bit rate : 200 Kbps
Channel(s) : 2 channels
Channel positions : Front: L R
Sampling rate : 48.0 KHz
Compression mode : Lossy
Stream size : 189 MiB (12%)

 

 

 

 

Complete name : WWE.Monday.Night.Raw.2017.12.04.720p.HDTV.x264-NWCHD.mp4
Format : MPEG-4
Format profile : Base Media
Codec ID : isom
File size : 4.51 GiB
Duration : 2h 17mn 

Video
ID : 1
Format : AVC
Duration : 2h 17mn
Bit rate mode : Variable
Bit rate : 4 500 Kbps
Width : 1 280 pixels
Height : 720 pixels
Display aspect ratio : 16:9
Frame rate mode : Variable
Frame rate : 29.970 fps
Minimum frame rate : 29.126 fps
Maximum frame rate : 29.970 fps
Color space : YUV
Chroma subsampling : 4:2:0
Bit depth : 8 bits
Scan type : Progressive
Bits/(Pixel*Frame) : 0.163

Audio
ID : 2
Format : AAC
Format profile : LC
Codec ID : 40
Duration : 2h 17mn
Bit rate mode : Variable
Bit rate : 192 Kbps
Maximum bit rate : 200 Kbps
Channel(s) : 2 channels
Channel positions : Front: L R
Sampling rate : 48.0 KHz
Compression mode : Lossy
Stream size : 189 MiB (4%)

 

 

 

 

 

 

Watch WWE Monday Night Raw 2017 12 04 HDTV NWCHD /720p

 

 

 

 

Watch online

 

 

Waiting finish converting video

 

 

Server 1

 

 

 

 

 

 

 

 

 

 

 

 

 

 

 

 

 

 

 

 

Server 2

 

 

 

 

 

 

 

 

 

 


 

 

Srver 3

 

 

 

 

 

 

 

 

 

 


 

 

 

 

Uploaded By Site DX-TV.com

 

 

 

open rar file to see this password

 

 

 

 

The password is : DX-TV.com

 

 

 

 

400p+720p

 

 

 

Uploaded.net

 

 

 

 

 

http://shrt10.com/Wr3P

 

 

 

http://shrt10.com/KiDJ8Hq

 

 

 

 

 

 

rapidgator.net

 

 

 

 

 

http://shrt10.com/8LEqgt

 

 

 

http://shrt10.com/M5EE7d

 

 

 

 

 

 

 

 

 

Watch WWE Monday Night Raw 2017 12 04 HDTV NWCHD /720p

Support HVIPS

Please Disable Ad-Block To View This site. just help us to continue this work