Watch WWE Main Event 720p 2017-12-28

Watch WWE Main Event 720p 2017-12-28

 

 

 

 

 

 

wwe

 

 

 

 

 

 

 

 
Complete name : WWE Main Event 720p 2017-12-28.mp4
Format : MPEG-4
Format profile : Base Media
Codec ID : isom
File size : 1.52 GiB
Duration : 45mn 8s
Overall bit rate : 4 827 Kbps
Writing application : Lavf57.56.101

Video
ID : 1
Format : AVC
Format/Info : Advanced Video Codec
Codec ID : avc1
Codec ID/Info : Advanced Video Coding
Duration : 45mn 8s
Bit rate mode : Variable
Bit rate : 4 501 Kbps
Width : 1 280 pixels
Height : 720 pixels
Display aspect ratio : 16:9
Frame rate mode : Constant
Frame rate : 25.000 fps
Color space : YUV
Chroma subsampling : 4:2:0
Bit depth : 8 bits
Scan type : Progressive
Bits/(Pixel*Frame) : 0.195
Stream size : 1.42 GiB (93%)

Audio
ID : 2
Format : AAC
Format/Info : Advanced Audio Codec
Format profile : LC
Codec ID : 40
Duration : 45mn 8s
Bit rate mode : Variable
Bit rate : 320 Kbps
Maximum bit rate : 384 Kbps
Channel(s) : 2 channels
Channel positions : Front: L R
Sampling rate : 48.0 KHz
Compression mode : Lossy
Stream size : 103 MiB (7%)

 

 

 

 

 

 

 

 

 

 

 

 

 

 

 

 

 

Watch WWE Main Event 720p 2017-12-28

 

 

 

 

Watch online

 

 

Waiting finish converting video

 

 

Server 1

 

 

 

 

 

 

 

 

 

 

 

 

 

 

 

 

 

 

 

 

Server 2

 

 

 

 

 

 

 

 

 

 


 

 

 

 

 

 

 

 

 

 

 

Uploaded By Site DX-TV.com

 

 

 

open rar file to see this password

 

 

 

 

The password is : DX-TV.com

 

 

 

 

720p

 

 

 

 

 

Uploaded.net + rapidgator.net

 

 

 

 

 

 

 

 

 

http://shrt10.com/qYTFKM

 

 

 

http://shrt10.com/2gWgoxiw

 

 

 

 

 

 

 

 

 

 

 

 

Watch WWE Main Event 720p 2017-12-28