Watch WWE Main Event 2018 03 22 WEB HEEL /720p

Watch WWE Main Event 2018 03 22 WEB HEEL /720p

 

 

 

 

 

wwe

 

 

 

 

 

 
Complete name : WWE.Main.Event.2018.03.22.WEB.h264-HEEL.mp4
Format : MPEG-4
Format profile : Base Media
Codec ID : isom
File size : 583 MiB
Duration : 45mn 48s
Overall bit rate : 1 780 Kbps
Writing application : Lavf58.2.103

Video
ID : 1
Format : AVC
Format/Info : Advanced Video Codec
Format profile : Main@L3.1
Codec ID/Info : Advanced Video Coding
Duration : 45mn 48s
Bit rate mode : Variable
Bit rate : 1 680 Kbps
Maximum bit rate : 2 125 Kbps
Width : 960 pixels
Height : 540 pixels
Display aspect ratio : 16:9
Frame rate mode : Constant
Frame rate : 29.970 fps
Color space : YUV
Chroma subsampling : 4:2:0
Bit depth : 8 bits
Scan type : Progressive
Bits/(Pixel*Frame) : 0.108
Stream size : 550 MiB (94%)

Audio
ID : 2
Format : AAC
Format/Info : Advanced Audio Codec
Format profile : LC
Codec ID : 40
Duration : 45mn 48s
Bit rate mode : Constant
Bit rate : 93.5 Kbps
Channel(s) : 2 channels
Channel positions : Front: L R
Sampling rate : 48.0 KHz
Compression mode : Lossy
Stream size : 30.6 MiB (5%)

 

 

 

 

 

 
Title: WWE.Main.Event.2018.03.22.720p.WEB.h264-HEEL
Released: 2018.03.28
Source: WWE Network
Resolution: 1280 x 720 @ 29.970 FPS
Video: H.264 @ 4500 kbps
Audio: AAC @ 96 kbps
Size: 1.41 GB
Runtime: 45mn 48sec
 

 

 

 

 

 

 

 

Watch WWE Main Event 2018 03 22 WEB HEEL /720p

 

 

 

 

Watch online

 

 

Waiting finish converting video

 

 

Server 1

 

 

 

 

 

 

 

 

 

 

 

 

 

Server 2

 

 

 

 

 

 


 

 

 

 

 

Uploaded By Site DX-TV.com

 

 

 

open rar file to see this password

 

 

 

 

The password is : DX-TV.com

 

 

 

 

400p+720p

 

 

 

 

 

Uploaded.net + rapidgator.net

 

 

 

 

 

 

 

http://shrt10.com/4BM7pDB

 

 

http://shrt10.com/UKkx2qmC

 

 

http://shrt10.com/888wRNBG

 

 

http://shrt10.com/Y7uKLM9

 

 

 

 

 

Watch WWE Main Event 2018 03 22 WEB HEEL /720p

Support HVIPS

Please Disable Ad-Block To View This site. just help us to continue this work