Watch WWE Main Event 2018 02 09 HDTV Ebi /720p

Watch WWE Main Event 2018 02 09 HDTV Ebi /720p

 

 

 

 

 

 

wwe

 

 

 

 

 

WWE.Main.Event.2018.02.09.HDTV.x264-Ebi
Release Info:
Show Name: WWE Main Event
Genre: Wrestling
Release Date: 2018-02-09(UK)
Air Date: 2018-02-09(UK)
Source : HDTV
Container: MP4
Video: x264, 1470Kbps, 29,970fps, 712×400, 16:9
Audio: AAC, 160bps, 48KHz, 2ch
Size: 442 MB
Runtime: 42mn 02s
 

 

 

 

Complete name : WWE.Main.Event.2018.02.09.720p.HDTV.x264-Ebi.mp4
Format : MPEG-4
Format profile : Base Media / Version 2
Codec ID : mp42
File size : 1.38 GiB
Duration : 42mn 2s
Overall bit rate : 4 708 Kbps
Encoded date : UTC 2018-02-08 16:35:03
Tagged date : UTC 2018-02-08 16:35:03

Video
ID : 1
Format : AVC
Format/Info : Advanced Video Codec
Codec ID : avc1
Codec ID/Info : Advanced Video Coding
Duration : 42mn 2s
Bit rate mode : Variable
Bit rate : 4 500 Kbps
Width : 1 280 pixels
Height : 720 pixels
Display aspect ratio : 16:9
Frame rate mode : Constant
Frame rate : 29.970 fps
Color space : YUV
Chroma subsampling : 4:2:0
Bit depth : 8 bits
Scan type : Progressive
Bits/(Pixel*Frame) : 0.163
Stream size : 1.32 GiB (96%)

Audio
ID : 2
Format : AAC
Format/Info : Advanced Audio Codec
Format profile : LC
Codec ID : 40
Duration : 42mn 2s
Bit rate mode : Variable
Bit rate : 192 Kbps
Channel(s) : 2 channels
Channel positions : Front: L R
Sampling rate : 48.0 KHz
Compression mode : Lossy
Stream size : 57.8 MiB (4%)
Title : Stereo
Encoded date : UTC 2018-02-08 16:35:03
Tagged date : UTC 2018-02-08 16:35:03

 

 

 

 

 

 

 

 

 

 

 

Watch WWE Main Event 2018 02 09 HDTV Ebi /720p

 

 

 

 

Watch online

 

 

Waiting finish converting video

 

 

Server 1

 

 

 

 

 

 

 

 

 

 

 

 

 

 

 

 

 

 

 

 

Server 2

 

 

 

 

 

 

 

 


 

 

 

 

 

 

 

Uploaded By Site DX-TV.com

 

 

 

open rar file to see this password

 

 

 

 

The password is : DX-TV.com

 

 

 

 

400p+720p

 

 

 

 

 

Uploaded.net + rapidgator.net

 

 

 

 

 

 

 

http://shrt10.com/uoRBNF9

 

 

http://shrt10.com/gVZre

 

 

http://shrt10.com/HSnDhI

 

 

http://shrt10.com/3zEQG

 

 

 

 

 

 

Watch WWE Main Event 2018 02 09 HDTV Ebi /720p