Watch WWE Main Event 2018 02 02 HDTV Ebi /720p

Watch WWE Main Event 2018 02 02 HDTV Ebi /720p

 

 

 

 

 

 

wwe

 

 

 

 

 

 

Complete name : WWE.Main.Event.2018.02.02.HDTV.x264-Ebi.mp4
Format : MPEG-4
Format profile : Base Media / Version 2
Codec ID : mp42
File size : 452 MiB
Duration : 43mn 16s
Overall bit rate : 1 460 Kbps
Encoded date : UTC 2018-02-01 15:11:34
Tagged date : UTC 2018-02-01 15:11:34

Video
ID : 1
Format : AVC
Format/Info : Advanced Video Codec
Format settings, GOP : N=1
Codec ID : avc1
Codec ID/Info : Advanced Video Coding
Duration : 43mn 16s
Bit rate mode : Variable
Bit rate : 1 300 Kbps
Width : 712 pixels
Height : 400 pixels
Display aspect ratio : 16:9
Frame rate mode : Constant
Frame rate : 29.970 fps
Color space : YUV
Chroma subsampling : 4:2:0
Bit depth : 8 bits
Scan type : Progressive
Bits/(Pixel*Frame) : 0.152
Stream size : 400 MiB (89%)

Audio
ID : 2
Format : AAC
Format/Info : Advanced Audio Codec
Format profile : LC
Codec ID : 40
Duration : 43mn 16s
Bit rate mode : Variable
Bit rate : 160 Kbps
Channel(s) : 2 channels
Channel positions : Front: L R
Sampling rate : 48.0 KHz
Compression mode : Lossy
Stream size : 49.6 MiB (11%)
Title : Stereo
Encoded date : UTC 2018-02-01 15:11:34
Tagged date : UTC 2018-02-01 15:11:34

 

 

 

 

 

 

 

 

 
WWE.Main.Event.2018.02.02.720p.HDTV.x264-Ebi
Release Info:
Show Name: WWE Main Event
Genre: Wrestling
Release Date: 2018-02-02(UK)
Air Date: 2018-02-02(UK)
Source : HDTV
Container: MP4
Video: x264, 4678Kbps, 29,970fps, 1280×720, 16:9
Audio: AAC, 192bps, 48KHz, 2ch
Size: 1.41 GB
Runtime: 43mn 16s
 

 

 

 

 

 

Watch WWE Main Event 2018 02 02 HDTV Ebi /720p

 

 

 

 

Watch online

 

 

Waiting finish converting video

 

 

Server 1

 

 

 

 

 

 

 

 

 

 

 

 

 

 

 

 

 

Server 2

 

 

 

 

 

 

 


 

 

 

 

 

 

 

Uploaded By Site DX-TV.com

 

 

 

open rar file to see this password

 

 

 

 

The password is : DX-TV.com

 

 

 

 

400p+720p

 

 

 

 

 

Uploaded.net + rapidgator.net

 

 

 

 

 

 

http://shrt10.com/2ow5fQy

 

 

http://shrt10.com/rpqoA

 

 

http://shrt10.com/Pgpv5jp

 

 

http://shrt10.com/Yec0IsNL

 

 

 

 

 

 

 

Watch WWE Main Event 2018 02 02 HDTV Ebi /720p

Support HVIPS

Please Disable Ad-Block To View This site. just help us to continue this work