Watch WWE Main Event 2018 01 19 HDTV Ebi /720p

Watch WWE Main Event 2018 01 19 HDTV Ebi /720p

 

 

 

 

 

wwe

 

 

 

 

 

WWE.Main.Event.2018.01.19.HDTV.x264-Ebi
Release Info:
Show Name: WWE Main Event
Genre: Wrestling
Release Date: 2018-01-18(UK)
Air Date: 2018-01-19(UK)
Source : HDTV
Container: MP4
Video: x264, 1475Kbps, 29,970fps, 712×400, 16:9
Audio: AAC, 160bps, 48KHz, 2ch
Size: 456 MB
Runtime: 43mn 15s
 

 

 

 

 

 

 

 
Complete name : WWE.Main.Event.2018.01.19.720p.HDTV.x264-Ebi.mp4
Format : MPEG-4
Format profile : Base Media / Version 2
Codec ID : mp42
File size : 1.43 GiB
Duration : 43mn 15s
Overall bit rate : 4 720 Kbps

Video
ID : 1
Format : AVC
Format/Info : Advanced Video Codec
Codec ID/Info : Advanced Video Coding
Duration : 43mn 15s
Bit rate mode : Variable
Bit rate : 4 500 Kbps
Width : 1 280 pixels
Height : 720 pixels
Display aspect ratio : 16:9
Frame rate mode : Constant
Frame rate : 29.970 fps
Color space : YUV
Chroma subsampling : 4:2:0
Bit depth : 8 bits
Scan type : Progressive
Bits/(Pixel*Frame) : 0.163
Stream size : 1.37 GiB (96%)
Audio
ID : 2
Format : AAC
Format/Info : Advanced Audio Codec
Format profile : LC
Codec ID : 40
Duration : 43mn 15s
Bit rate mode : Variable
Bit rate : 192 Kbps
Channel(s) : 2 channels
Channel positions : Front: L R
Sampling rate : 48.0 KHz
Compression mode : Lossy
Stream size : 59.5 MiB (4%)
Title : Stereo

 

 

 

 

 

 

 

 

 

 

 

Watch WWE Main Event 2018 01 19 HDTV Ebi /720p

 

 

 

 

Watch online

 

 

Waiting finish converting video

 

 

Server 1

 

 

 

 

 

 

 

 

 

 

 

 

 

 

 

 

 

 

 

Server 2

 

 

 

 

 

 

 

 

 

 

 


 

 

 

 

 

 

 

Uploaded By Site DX-TV.com

 

 

 

open rar file to see this password

 

 

 

 

The password is : DX-TV.com

 

 

 

 

400p+720p

 

 

 

 

 

Uploaded.net + rapidgator.net

 

 

 

 

 

 

 

 

 

http://shrt10.com/OcoWjjmq

 

 

http://shrt10.com/E9wDN5a

 

 

http://shrt10.com/26aaX4T

 

 

http://shrt10.com/Nb4Iw

 

 

 

 

 

 

 

 

 

 

 

 

Watch WWE Main Event 2018 01 19 HDTV Ebi /720p

Support HVIPS

Please Disable Ad-Block To View This site. just help us to continue this work