Watch WWE Main Event 2018 01 04 HDTV mp4

Watch WWE Main Event 2018 01 04 HDTV mp4

 

 

 

 

 

 

wwe

 

 

 

 

 

 

 

Complete name : 2018-01-04 WWE Main Event – Ringmaster81.mp4
Format : MPEG-4
Format profile : Base Media
Codec ID : isom
File size : 1.43 GiB
Duration : 42mn 55s
Overall bit rate : 4 770 Kbps
Writing application : Lavf57.56.101

Video
ID : 1
Format : AVC
Format/Info : Advanced Video Codec
Codec ID/Info : Advanced Video Coding
Duration : 42mn 55s
Bit rate mode : Variable
Bit rate : 4 432 Kbps
Width : 1 280 pixels
Height : 720 pixels
Display aspect ratio : 16:9
Frame rate mode : Constant
Frame rate : 25.000 fps
Color space : YUV
Chroma subsampling : 4:2:0
Bit depth : 8 bits
Scan type : Progressive
Bits/(Pixel*Frame) : 0.192
Stream size : 1.33 GiB (93%)

Audio
ID : 2
Format : AAC
Format/Info : Advanced Audio Codec
Format profile : LC
Codec ID : 40
Duration : 42mn 55s
Bit rate mode : Variable
Bit rate : 332 Kbps
Maximum bit rate : 384 Kbps
Channel(s) : 2 channels
Channel positions : Front: L R
Sampling rate : 48.0 KHz
Compression mode : Lossy
Stream size : 102 MiB (7%)

 

 

 

 

 

 

 

 

 

 

 

 

 

 

 

 

 

Watch WWE Main Event 2018 01 04 HDTV mp4

 

 

 

 

Watch online

 

 

Waiting finish converting video

 

 

Server 1

 

 

 

 

 

 

 

 

 

 

 

 

 

 

 

 

 

 

 

 

 

 

 

 

 

 

Server 2

 

 

 

 

 

 

 

 

 

 

 


 

 

 

 

 

 

 

 

 

 

Uploaded By Site DX-TV.com

 

 

 

open rar file to see this password

 

 

 

 

The password is : DX-TV.com

 

 

 

 

720p

 

 

 

 

 

rapidgator.net

 

 

 

 

 

 

 

 

 

 

http://shrt10.com/6ZvBl6I

 

 

 

 

 

 

 

 

 

 

 

Watch WWE Main Event 2018 01 04 HDTV mp4