Watch WWE Main Event 2017 12 08 HDTV Ebi /720p

Watch WWE Main Event 2017 12 08 HDTV Ebi /720p

 

 

 

 

 

 

wwe

 

 

 

 

 

 

Complete name : WWE.Main.Event.2017.12.08.720p.HDTV.x264-Ebi.mp4
Format : MPEG-4
Codec ID : mp42
File size : 1.45 GiB
Duration : 44mn 13s
Overall bit rate : 4 706 Kbps

Video
ID : 1
Format : AVC
Duration : 44mn 13s
Bit rate mode : Variable
Bit rate : 4 500 Kbps
Width : 1 280 pixels
Height : 720 pixels
Display aspect ratio : 16:9
Frame rate mode : Constant
Frame rate : 29.970 fps
Color space : YUV
Chroma subsampling : 4:2:0
Bit depth : 8 bits
Scan type : Progressive
Bits/(Pixel*Frame) : 0.163
Stream size : 1.39 GiB (96%)

Audio
ID : 2
Format : AAC
Format profile : LC
Codec ID : 40
Duration : 44mn 13s
Bit rate mode : Variable
Bit rate : 192 Kbps
Channel(s) : 2 channels
Channel positions : Front: L R
Sampling rate : 48.0 KHz
Compression mode : Lossy
Stream size : 60.6 MiB (4%)
Title : Stereo

 

 

 

 

 

 

 
Complete name :WWE.Main.Event.2017.12.08.HDTV.x264-Ebi.mp4
Format : MPEG-4
Format profile : Base Media / Version 2
Codec ID : mp42
File size : 475 MiB
Duration : 44mn 13s
Overall bit rate : 1 503 Kbps

Video
ID : 1
Format : AVC
Duration : 44mn 13s
Bit rate mode : Variable
Bit rate : 1 300 Kbps
Width : 712 pixels
Height : 400 pixels
Display aspect ratio : 16:9
Frame rate mode : Constant
Frame rate : 29.970 fps
Color space : YUV
Chroma subsampling : 4:2:0
Bit depth : 8 bits
Scan type : Progressive
Bits/(Pixel*Frame) : 0.152
Stream size : 412 MiB (87%)

Audio
ID : 2
Format : AAC
Format/Info : Advanced Audio Codec
Format profile : LC
Codec ID : 40
Duration : 44mn 13s
Bit rate mode : Variable
Bit rate : 192 Kbps
Channel(s) : 2 channels
Channel positions : Front: L R
Sampling rate : 48.0 KHz
Compression mode : Lossy
Stream size : 60.6 MiB (13%)
Title : Stereo 

 

 

 

 

 

 

 

 

 

 

 

Watch WWE Main Event 2017 12 08 HDTV Ebi /720p

 

 

 

 

Watch online

 

 

Waiting finish converting video

 

 

Server 1

 

 

 

 

 

 

 

 

 

 

 

 

 

 

 

 

 

 

 

 

Server 2

 

 

 

 

 

 

 

 


 

 

 

 

 

 

 

 

Srver 3

 

 

 

 

 

 

 

 

 


 

 

 

 

 

 

 

 

 

Uploaded By Site DX-TV.com

 

 

 

open rar file to see this password

 

 

 

 

The password is : DX-TV.com

 

 

 

 

400p+720p

 

 

 

Uploaded.net

 

 

 

 

 

 

 

http://shrt10.com/POrL

 

 

 

 

http://shrt10.com/RgBXzIII

 

 

 

 

 

 

 

rapidgator.net

 

 

 

 

 

 

 

 

 

http://shrt10.com/KYiO

 

 

 

 

http://shrt10.com/73tR8LR9

 

 

 

 

 

 

Watch WWE Main Event 2017 12 08 HDTV Ebi /720p