Watch WWE Main Event 2017 01 11 HDTV mp4

Watch WWE Main Event 2017 01 11 HDTV mp4

 

 

 

 

 

 

wwe

 

 

 

 

 

 

 

 

Complete name : 2018-01-11 WWE Main Event.mp4
Format : MPEG-4
Format profile : Base Media
Codec ID : isom
File size : 566 MiB
Duration : 46mn 44s
Overall bit rate : 1 692 Kbps
Writing application : Lavf57.56.101

Video
ID : 1
Format : AVC
Format/Info : Advanced Video Codec
Codec ID : avc1
Codec ID/Info : Advanced Video Coding
Duration : 46mn 44s
Bit rate mode : Variable
Bit rate : 1 363 Kbps
Width : 640 pixels
Height : 480 pixels
Display aspect ratio : 16:9
Frame rate mode : Constant
Frame rate : 25.000 fps
Color space : YUV
Chroma subsampling : 4:2:0
Bit depth : 8 bits
Scan type : Progressive
Bits/(Pixel*Frame) : 0.177
Stream size : 456 MiB (81%)
Audio
ID : 2
Format : AAC
Format/Info : Advanced Audio Codec
Format profile : LC
Codec ID : 40
Duration : 46mn 44s
Bit rate mode : Variable
Bit rate : 324 Kbps
Maximum bit rate : 384 Kbps
Channel(s) : 2 channels
Channel positions : Front: L R
Sampling rate : 48.0 KHz
Compression mode : Lossy
Stream size : 108 MiB (19%)

 

 

 

 

 

 

 

 

 

 

 

 

 

 

 

 

 

 

 

 

 

Watch WWE Main Event 2017 01 11 HDTV mp4

 

 

 

 

Watch online

 

 

Waiting finish converting video

 

 

Server 1

 

 

 

 

 

 

 

 

 

 

 

 

 

 

 

 

 

 

 

 

 

 

 

 

Srver 2

 

 

 

 

 

 

 

 

 

 

 

 


 

 

 

 

 

 

 

 

 

Uploaded By Site DX-TV.com

 

 

 

open rar file to see this password

 

 

 

 

The password is : DX-TV.com

 

 

 

 

 

 

Uploaded.net + rapidgator.net

 

 

 

 

 

 

 

 

http://shrt10.com/SCg7V3CV

 

 

 

 

 

http://shrt10.com/HPq43XvI

 

 

 

 

 

 

 

 

 

 

 

 

 

 

 

 

 

 

 

 

Watch WWE Main Event 2017 01 11 HDTV mp4

Support HVIPS

Please Disable Ad-Block To View This site. just help us to continue this work