Watch WWE Hell In A Cell 2017 PPV WEB /720p mp4

Watch WWE Hell In A Cell 2017 PPV WEB /720p mp4

 

 

 

 

 

 

wwe

 

 

 

 

 

Complete name : WWE.Hell.In.A.Cell.2017.PPV.WEB.h264-HEEL.mp4
Format : MPEG-4
Format profile : Base Media
Codec ID : isom
File size : 2.69 GiB
Duration : 3h 33mn
Overall bit rate : 1 806 Kbps
Writing application : Lavf57.20.100

Video
ID : 1
Format : AVC
Duration : 3h 33mn
Bit rate mode : Constant
Bit rate : 1 704 Kbps
Width : 896 pixels
Height : 504 pixels
Display aspect ratio : 16:9
Frame rate mode : Constant
Frame rate : 29.970 fps
Color space : YUV
Chroma subsampling : 4:2:0
Bit depth : 8 bits
Scan type : Progressive
Bits/(Pixel*Frame) : 0.126
Stream size : 2.54 GiB (94%)

Audio
ID : 2
Format : AAC
Codec ID : 40
Duration : 3h 33mn
Bit rate mode : Variable
Bit rate : 93.5 Kbps
Maximum bit rate : 96.0 Kbps
Channel(s) : 2 channels
Channel positions : Front: L R
Sampling rate : 48.0 KHz
Compression mode : Lossy
Stream size : 142 MiB (5%)

Text
ID : 1-608-1
Format : EIA-608
Duration : 3h 33mn
Stream size : 0.00 Byte (0%)
ContentInfo : No content

 

 

 

 

 

 

Complete name : WWE.Hell.In.A.Cell.2017.PPV.720p.WEB.h264-HEEL.mp4
Format : MPEG-4
Format profile : Base Media
Codec ID : isom
File size : 6.71 GiB
Duration : 3h 33mn
Overall bit rate : 4 508 Kbps
Writing application : Lavf57.20.100

Video
ID : 1
Format : AVC
Format settings, ReFrames : 4 frames
Codec ID : avc1
Codec ID/Info : Advanced Video Coding
Duration : 3h 33mn
Bit rate mode : Constant
Bit rate : 4 372 Kbps
Width : 1 280 pixels
Height : 720 pixels
Display aspect ratio : 16:9
Frame rate mode : Constant
Frame rate : 29.970 fps
Color space : YUV
Chroma subsampling : 4:2:0
Bit depth : 8 bits
Scan type : Progressive
Bits/(Pixel*Frame) : 0.158
Stream size : 6.51 GiB (97%)

Audio
ID : 2
Format : AAC
Codec ID : 40
Duration : 3h 33mn
Bit rate mode : Constant
Bit rate : 125 Kbps
Channel(s) : 2 channels
Channel positions : Front: L R
Sampling rate : 48.0 KHz
Compression mode : Lossy
Stream size : 191 MiB (3%)
Language : English

Text
ID : 1-608-1
Format : EIA-608
Duration : 3h 33mn
Stream size : 0.00 Byte (0%)
ContentInfo : No content
 

 

 

 

 

 

 

 

 

 

 

 

Watch WWE Hell In A Cell 2017 PPV WEB /720p mp4

 

 

 

 

Watch online

 

 

Waiting finish converting video

 

 

Server 1

 

 

 

 

 

 

 

 

 

 

 

 

 

 

 

 

 

Server 2

 

 

 

 

 

 

 

 

 

 


 

 

 

 

 

 

 

Uploaded By Site DX-TV.com

 

 

 

open rar file to see this password

 

 

 

 

The password is : DX-TV.com

 

 

 

 

400p+720p

 

 

 

 

Uploaded.net

 

 

 

 

 

 

http://shrt10.com/iKrJjnN

 

 

 

http://shrt10.com/VK13qXZ

 

 

 

http://shrt10.com/R4C5Q

 

 

 

 

 

 

 

rapidgator.net

 

 

 

 

 

http://shrt10.com/ZYFl

 

 

 

http://shrt10.com/HTWcNfb

 

 

 

http://shrt10.com/SKo0o

 

 

 

 

 

 

Watch WWE Hell In A Cell 2017 PPV WEB /720p mp4

Support HVIPS

Please Disable Ad-Block To View This site. just help us to continue this work