Watch WWE Hall Of Fame 2018 Red Carpet WEB HEEL /720p

Watch WWE Hall Of Fame 2018 Red Carpet WEB HEEL /720p

 

 

 

 

 

 

wwe

 

 

 

 

 

Complete name : WWE.Hall.Of.Fame.2018.Red.Carpet.WEB.h264-HEEL.mp4
Format : MPEG-4
Format profile : Base Media
Codec ID : isom
File size : 717 MiB
Duration : 55mn 34s
Overall bit rate : 1 805 Kbps
Writing application : Lavf58.2.103

Video
ID : 1
Format : AVC
Format/Info : Advanced Video Codec
Codec ID : avc1
Codec ID/Info : Advanced Video Coding
Duration : 55mn 34s
Bit rate mode : Variable
Bit rate : 1 704 Kbps
Maximum bit rate : 1 800 Kbps
Width : 896 pixels
Height : 504 pixels
Display aspect ratio : 16:9
Frame rate mode : Variable
Frame rate : 29.970 fps
Minimum frame rate : 19.655 fps
Maximum frame rate : 29.970 fps
Color space : YUV
Chroma subsampling : 4:2:0
Bit depth : 8 bits
Scan type : Progressive
Bits/(Pixel*Frame) : 0.126
Stream size : 678 MiB (94%)

Audio
ID : 2
Format : AAC
Format/Info : Advanced Audio Codec
Format profile : LC
Codec ID : 40
Duration : 55mn 34s
Bit rate mode : Variable
Bit rate : 93.5 Kbps
Maximum bit rate : 96.8 Kbps
Channel(s) : 2 channels
Channel positions : Front: L R
Sampling rate : 48.0 KHz
Compression mode : Lossy
Stream size : 37.2 MiB (5%)
Language : English

 

 

 

 

 

 

 

 

 

Title: WWE.Hall.Of.Fame.2018.Red.Carpet.720p.WEB.h264-HEEL
Released: 2018.04.06
Source: WWE Network
Resolution: 1280 x 720 @ 29.970 FPS
Video: H.264 @ 4500 kbps
Audio: AAC @ 128 kbps
Size: 1.75 GB
Runtime: 55mn 34sec
 

Watch WWE Hall Of Fame 2018 Red Carpet WEB HEEL /720p

 

 

 

 

Watch online

 

 

Waiting finish converting video

 

 

Server 1

 

 

 

 

 

 

 

 

 

 

 

 

 

 

 

Server 2

 

 

 

 

 


 

 

 

 

Uploaded By Site DX-TV.com

 

 

 

open rar file to see this password

 

 

 

 

The password is : DX-TV.com

 

 

 

 

400p+720p

 

 

 

 

 

Uploaded.net + rapidgator.net

 

 

 

 

 

 

http://shrt10.com/U8ShQ

 

 

 

http://shrt10.com/M1Bgn

 

 

http://shrt10.com/YSWYQ

 

 

http://shrt10.com/56mZlmef

 

 

 

 

Watch WWE Hall Of Fame 2018 Red Carpet WEB HEEL /720p

Support HVIPS

Please Disable Ad-Block To View This site. just help us to continue this work