Watch WWE 24 S01E15 Empowered WEB HEEL /720p

Watch WWE 24 S01E15 Empowered WEB HEEL /720p

 

 

 

 

 

 

wwe

 

 

 

 

 

 

 

Complete name : WWE.24.S01E15.Empowered.WEB.h264-HEEL.mp4
Format : MPEG-4
Format profile : Base Media
Codec ID : isom
File size : 663 MiB
Duration : 51mn 23s
Overall bit rate : 1 804 Kbps
Writing application : Lavf58.2.103

Video
ID : 1
Format : AVC
Format/Info : Advanced Video Codec
Format profile : Main@L3.1
Codec ID : avc1
Codec ID/Info : Advanced Video Coding
Duration : 51mn 23s
Bit rate mode : Constant
Bit rate : 1 704 Kbps
Width : 896 pixels
Height : 504 pixels
Display aspect ratio : 16:9
Frame rate mode : Variable
Frame rate : 29.970 fps
Minimum frame rate : 23.358 fps
Maximum frame rate : 29.970 fps
Color space : YUV
Chroma subsampling : 4:2:0
Bit depth : 8 bits
Scan type : Progressive
Bits/(Pixel*Frame) : 0.126
Stream size : 626 MiB (94%)

Audio
ID : 2
Format : AAC
Format/Info : Advanced Audio Codec
Format profile : LC
Codec ID : 40
Duration : 51mn 23s
Bit rate mode : Variable
Bit rate : 93.5 Kbps
Maximum bit rate : 98.6 Kbps
Channel(s) : 2 channels
Channel positions : Front: L R
Sampling rate : 48.0 KHz
Compression mode : Lossy
Stream size : 34.4 MiB (5%)
Language : English

 

 

 

 

 

Title: WWE.24.S01E15.Empowered.720p.WEB.h264-HEEL
Released: 2018.03.19
Source: WWE Network
Resolution: 1280 x 720 @ 29.970 FPS
Video: H.264 @ 4500 kbps
Audio: AAC @ 128 kbps
Size: 1.62 GB
Runtime: 51mn 23sec
 

 

 

 

 

 

 

 

 

 

 

Watch WWE 24 S01E15 Empowered WEB HEEL /720p

 

 

 

 

Watch online

 

 

Waiting finish converting video

 

 

Server 1

 

 

 

 

 

 

 

 

 

 

 

 

 

 

 

 

 

 

Server 2

 

 

 

 

 

 

 

 

 


 

 

 

 

 

 

 

 

 

Uploaded By Site DX-TV.com

 

 

 

open rar file to see this password

 

 

 

 

The password is : DX-TV.com

 

 

 

 

400p+720p

 

 

 

 

 

Uploaded.net + rapidgator.net

 

 

 

 

 

 

 

http://shrt10.com/6g5kA

 

 

 

http://shrt10.com/FSMBahVa

 

 

 

http://shrt10.com/sE34e

 

 

 

http://shrt10.com/XY1H

 

 

 

 

 

 

 

 

Watch WWE 24 S01E15 Empowered WEB HEEL /720p