Watch WWE 24 S01E14 WrestleMania Orlando WEB HEEL /720p

Watch WWE 24 S01E14 WrestleMania Orlando WEB HEEL /720p

 

 

 

 

 

 

wwe

 

 

 

 

 

 

Title: WWE.24.S01E14.WrestleMania.Orlando.WEB.h264-HEEL
Released: 2018.01.28
Source: WWE Network
Resolution: 896 x 504 @ 29.970 FPS
Video: H.264 @ 1800 kbps
Audio: AAC @ 96 kbps
Size: 756 MB
Runtime: 58mn 32sec
 

 

 

 

 

 
Complete name : WWE.24.S01E14.WrestleMania.Orlando.720p.WEB.h264-HEEL.mp4
Format : MPEG-4
Format profile : Base Media
Codec ID : isom
File size : 1.84 GiB
Duration : 58mn 32s
Overall bit rate : 4 506 Kbps
Writing application : Lavf58.2.103

Video
ID : 1
Format : AVC
Format/Info : Advanced Video Codec
Codec ID : avc1
Codec ID/Info : Advanced Video Coding
Duration : 58mn 32s
Duration_LastFrame : -13ms
Bit rate mode : Constant
Bit rate : 4 372 Kbps
Width : 1 280 pixels
Height : 720 pixels
Display aspect ratio : 16:9
Frame rate mode : Variable
Frame rate : 29.970 fps
Minimum frame rate : 20.819 fps
Maximum frame rate : 29.970 fps
Color space : YUV
Chroma subsampling : 4:2:0
Bit depth : 8 bits
Scan type : Progressive
Bits/(Pixel*Frame) : 0.158
Stream size : 1.79 GiB (97%)

Audio
ID : 2
Format : AAC
Format/Info : Advanced Audio Codec
Format profile : LC
Codec ID : 40
Duration : 58mn 32s
Bit rate mode : Constant
Bit rate : 125 Kbps
Channel(s) : 2 channels
Channel positions : Front: L R
Sampling rate : 48.0 KHz
Compression mode : Lossy
Stream size : 52.5 MiB (3%)
Language : English
 

 

 

 

 

 

 

 

 

 

 

 

Watch WWE 24 S01E14 WrestleMania Orlando WEB HEEL /720p

 

 

 

 

Watch online

 

 

Waiting finish converting video

 

 

Server 1

 

 

 

 

 

 

 

 

 

 

 

 

 

 

 

 

 

 

 

Server 2

 

 

 

 

 


 

 

 

 

 

 

 

 

Uploaded By Site DX-TV.com

 

 

 

open rar file to see this password

 

 

 

 

The password is : DX-TV.com

 

 

 

 

400p+720p

 

 

 

 

 

Uploaded.net + rapidgator.net

 

 

 

 

 

 

http://shrt10.com/req2l1

 

 

http://shrt10.com/vgsGgi

 

 

http://shrt10.com/9QdDPvgU

 

 

http://shrt10.com/yF4QEAY

 

 

 

 

 

 

Watch WWE 24 S01E14 WrestleMania Orlando WEB HEEL /720p