Watch WWE 205 Live 2018 08 07 WEB HEEL /720p

Watch WWE 205 Live 2018 08 07 WEB HEEL /720p

 

 

 

 


 

 

 

dx-tv.com

 

 

 

 

 

 

Complete name : WWE.205.Live.2018.08.07.WEB.h264-HEEL.mp4
Format : MPEG-4
Format profile : Base Media
File size : 705 MiB
Duration : 54 min 37 s
Overall bit rate mode : Variable
Overall bit rate : 1 804 kb/s
Writing application : Lavf58.2.103

Video
ID : 1
Format : AVC
Format/Info : Advanced Video Codec
Codec ID : avc1
Codec ID/Info : Advanced Video Coding
Duration : 54 min 37 s
Duration_FirstFrame : 21 ms
Bit rate mode : Constant
Bit rate : 1 704 kb/s
Width : 896 pixels
Height : 504 pixels
Display aspect ratio : 16:9
Frame rate mode : Constant
Color space : YUV
Chroma subsampling : 4:2:0
Bit depth : 8 bits
Scan type : Progressive
Bits/(Pixel*Frame) : 0.126
Stream size : 666 MiB (94%)

Audio
ID : 2
Format : AAC
Format/Info : Advanced Audio Codec
Format profile : LC
Codec ID : mp4a-40-2
Duration : 54 min 37 s
Bit rate mode : Variable
Bit rate : 93.5 kb/s
Maximum bit rate : 97.9 kb/s
Channel(s) : 2 channels
Channel positions : Front: L R
Sampling rate : 48.0 kHz
Frame rate : 46.875 FPS (1024 SPF)
Compression mode : Lossy
Stream size : 36.5 MiB (5%)
Language : English
Default : Yes
Alternate group : 1
 

 

 

 

 

 
Title: WWE.205.Live.2018.08.07.WEB.h264-HEEL
Released: 2018.08.07
Source: WWE Network
Resolution: 896 x 504 @ 29.970 FPS
Video: H.264 @ 1800 kbps
Audio: AAC @ 96 kbps
Size: 704 MB
Runtime: 54mn 37sec
 

 

 

Watch WWE 205 Live 2018 08 07 WEB HEEL /720p

 

 

 

 

Watch online

 

 

Waiting finish converting video

 

 

Server 1

 

 

 

 

 

 

 

 

 

 

 

 

 

 

 

Server 2

 

 

 

 

 


 

 

 

 

 

Uploaded By Site DX-TV.com

 

 

 

open rar file to see this password

 

 

 

 

The password : DX-TV.com

 

 

 

 

 

 

Uploaded.net + rapidgator.net

 

 

 

 

 

http://shrt10.com/jB9iZo
 

http://shrt10.com/eS7xbfTX
 

http://shrt10.com/hzykM

 
http://shrt10.com/uaRj

 

 

 

 

 

 

 

Watch WWE 205 Live 2018 08 07 WEB HEEL /720p

This site uses Akismet to reduce spam. Learn how your comment data is processed.

Support HVIPS

Please Disable Ad-Block To View This site. just help us to continue this work