Watch WWE 205 Live 2018 01 30 WEB HEEL /720p

Watch WWE 205 Live 2018 01 30 WEB HEEL /720p

 

 

 

 

 

 

wwe

 

 

 

 

 

Title: WWE.205.Live.2018.01.30.WEB.h264-HEEL
Released: 2018.01.30
Source: WWE Network
Resolution: 896 x 504 @ 29.970 FPS
Video: H.264 @ 1800 kbps
Audio: AAC @ 96 kbps
Size: 621 MB
Runtime: 48mn 04sec

 

 

 

 

 

 
Complete name : WWE.205.Live.2018.01.30.720p.WEB.h264-HEEL.mp4
Format : MPEG-4
Format profile : Base Media
Codec ID : isom
File size : 1.51 GiB
Duration : 48mn 4s
Overall bit rate : 4 507 Kbps
Writing application : Lavf58.2.103

Video
ID : 1
Format : AVC
Format/Info : Advanced Video Codec
Codec ID : avc1
Codec ID/Info : Advanced Video Coding
Duration : 48mn 4s
Duration_LastFrame : -11ms
Bit rate mode : Variable
Bit rate : 4 373 Kbps
Maximum bit rate : 3 200 Kbps
Width : 1 280 pixels
Height : 720 pixels
Display aspect ratio : 16:9
Frame rate mode : Variable
Frame rate : 29.970 fps
Minimum frame rate : 20.800 fps
Maximum frame rate : 29.970 fps
Color space : YUV
Chroma subsampling : 4:2:0
Bit depth : 8 bits
Scan type : Progressive
Bits/(Pixel*Frame) : 0.158
Stream size : 1.47 GiB (97%)

Audio
ID : 2
Format : AAC
Format/Info : Advanced Audio Codec
Format profile : LC
Codec ID : 40
Duration : 48mn 4s
Bit rate mode : Constant
Bit rate : 125 Kbps
Channel(s) : 2 channels
Channel positions : Front: L R
Sampling rate : 48.0 KHz
Compression mode : Lossy
Stream size : 43.1 MiB (3%)
Language : English
 

 

 

 

 

 

 

 

 

 

 

 

Watch WWE 205 Live 2018 01 30 WEB HEEL /720p

 

 

 

 

Watch online

 

 

Waiting finish converting video

 

 

Server 1

 

 

 

 

 

 

 

 

 

 

 

 

 

 

 

 

Server 2

 

 

 

 

 

 

 

 

 

 

 

 

 

 

 

 

 

 

Uploaded By Site DX-TV.com

 

 

 

open rar file to see this password

 

 

 

 

The password is : DX-TV.com

 

 

 

 

400p+720p

 

 

 

 

 

Uploaded.net + rapidgator.net

 

 

 

 

 

http://shrt10.com/y4apNwcg

 

http://shrt10.com/LeV5ex

 

 

http://shrt10.com/X7n9f

 

http://shrt10.com/3oQm

 

 

 

 

 

 

 

 

 

 

Watch WWE 205 Live 2018 01 30 WEB HEEL /720p