Watch WWE 205 Live 2018 01 16 WWE Network HDTV Ebi /720p

Watch WWE 205 Live 2018 01 16 WWE Network HDTV Ebi /720p

 

 

 

 

 

 

wwe

 

 

 

 

 

 

 

WWE.205.Live.2018.01.16.WWE.Network.HDTV.x264-Ebi
Release Info:
Show Name: WWE 205 Live
Genre: Wrestling
Release Date: 2018-01-17(UK)
Air Date: 2018-01-16(US)
Source : HDTV
Container: MP4
Video: x264, 1468Kbps, 29,970fps, 712×400, 16:9
Audio: AAC, 160Kbps, 48KHz, 2ch
Size: 498 MB
Runtime: 49mn 19s
 

 

 

 

 

 

 

 

 
Complete name : WWE.205.Live.2018.01.16.720p.WWE.Network.HDTV.x264-Ebi.mp4
Format : MPEG-4
Format profile : Base Media / Version 2
Codec ID : mp42
File size : 867 MiB
Duration : 25mn 42s
Overall bit rate : 4 714 Kbps

Video
ID : 1
Format : AVC
Format/Info : Advanced Video Codec
Codec ID : avc1
Codec ID/Info : Advanced Video Coding
Duration : 25mn 42s
Bit rate mode : Variable
Bit rate : 4 500 Kbps
Width : 1 280 pixels
Height : 720 pixels
Display aspect ratio : 16:9
Frame rate mode : Constant
Frame rate : 29.970 fps
Color space : YUV
Chroma subsampling : 4:2:0
Bit depth : 8 bits
Scan type : Progressive
Bits/(Pixel*Frame) : 0.163
Stream size : 830 MiB (96%)

Audio
ID : 2
Format : AAC
Format/Info : Advanced Audio Codec
Format profile : LC
Codec ID : 40
Duration : 25mn 42s
Bit rate mode : Variable
Bit rate : 192 Kbps
Channel(s) : 2 channels
Channel positions : Front: L R
Sampling rate : 48.0 KHz
Compression mode : Lossy
Stream size : 35.3 MiB (4%)
Title : Stereo
 

 

 

 

 

 

 

 

 

 

 

 

 

Watch WWE 205 Live 2018 01 16 WWE Network HDTV Ebi /720p

 

 

 

 

Watch online

 

 

Waiting finish converting video

 

 

Server 1

 

 

 

 

 

 

 

 

 

 

 

 

 

 

 

 

 

 

 

 

 

 

 

 

 

 

 

 

 

 

 

Srver 2

 

 

 

 

 

 

 

 

 

 

 

 

 

 

 

 

 

 

 

 

 

 

 

 

 

 

 

 

 

 

Uploaded By Site DX-TV.com

 

 

 

open rar file to see this password

 

 

 

 

The password is : DX-TV.com

 

 

 

 

400p+720p

 

 

 

 

Uploaded.net + rapidgator.net

 

 

 

 

 

 

 

 

 

 

 

 

http://shrt10.com/ScfkrR

 

 

http://shrt10.com/Ljd5

 

 

 

 

http://shrt10.com/Odw0w

 

 

http://shrt10.com/bdfKjk

 

 

 

 

 

 

 

 

 

 

 

 

 

 

 

 

 

 

 

 

 

 

 

Watch WWE 205 Live 2018 01 16 WWE Network HDTV Ebi /720p