Watch WWE 205 Live 2017 12 26 WEB HEEL /720p mp4

Watch WWE 205 Live 2017 12 26 WEB HEEL /720p mp4

 

 

 

 

 

 

wwe

 

 

 

 

 

 

 

 

 
Title: WWE.205.Live.2017.12.26.720p.WEB.h264-HEEL
Released: 2017.12.26
Source: WWE Network
Resolution: 1280 x 720 @ 29.970 FPS
Video: H.264 @ 4500 kbps
Audio: AAC @ 128 kbps
Size: 1.65 GB
Runtime: 52mn 38sec

 

 

 

 

 

 
Complete name : WWE.205.Live.2017.12.26.720p.WEB.h264-HEEL.mp4
Format : MPEG-4
Format profile : Base Media
Codec ID : isom
File size : 1.66 GiB
Duration : 52mn 38s
Overall bit rate : 4 506 Kbps
Writing application : Lavf58.2.103

Video
ID : 1
Format : AVC
Format/Info : Advanced Video Codec
Codec ID : avc1
Codec ID/Info : Advanced Video Coding
Duration : 52mn 38s
Bit rate mode : Constant
Bit rate : 4 372 Kbps
Width : 1 280 pixels
Height : 720 pixels
Display aspect ratio : 16:9
Frame rate mode : Constant
Frame rate : 29.970 fps
Color space : YUV
Chroma subsampling : 4:2:0
Bit depth : 8 bits
Scan type : Progressive
Bits/(Pixel*Frame) : 0.158
Stream size : 1.61 GiB (97%)

Audio
ID : 2
Format : AAC
Format/Info : Advanced Audio Codec
Format profile : LC
Codec ID : 40
Duration : 52mn 38s
Bit rate mode : Constant
Bit rate : 125 Kbps
Channel(s) : 2 channels
Channel positions : Front: L R
Sampling rate : 48.0 KHz
Compression mode : Lossy
Stream size : 47.2 MiB (3%)
Language : English

 

 

 

 

 

 

 

 

 

 

 

 

 

 

Watch WWE 205 Live 2017 12 26 WEB HEEL /720p mp4

 

 

 

 

Watch online

 

 

Waiting finish converting video

 

 

Server 1

 

 

 

 

 

 

 

 

 

 

 

 

 

 

 

 

 

 

 

 

 

 

 

 

 

Srver 2

 

 

 

 

 

 

 

 

 

 

 

 

 

 

 


 

 

 

 

 

 

 

 

 

 

 

 

Uploaded By Site DX-TV.com

 

 

 

open rar file to see this password

 

 

 

 

The password is : DX-TV.com

 

 

 

 

400p+720p

 

 

 

 

Uploaded.net + rapidgator.net

 

 

 

 

 

 

 

 

 

 

 

http://shrt10.com/8hZMV

 

 

 

 

http://shrt10.com/Aq1Mztd

 

 

 

 

 

 

http://shrt10.com/kCu2x

 

 

 

 

http://shrt10.com/19ivDu

 

 

 

 

 

 

 

 

 

 

 

 

 

 

 

 

 

 

Watch WWE 205 Live 2017 12 26 WEB HEEL /720p mp4