Watch WWE 205 Live 2017 12 19 WWE Network HDTV Ebi /720p

Watch WWE 205 Live 2017 12 19 WWE Network HDTV Ebi /720p

 

 

 

 

 

 

wwe

 

 

 

 

 

 

Complete name : WWE.205.Live.2017.12.19.WWE.Network.HDTV.x264-Ebi.mp4
Format : MPEG-4
Format profile : Base Media / Version 2
Codec ID : mp42
File size : 538 MiB
Duration : 50mn 9s
Overall bit rate : 1 501 Kbps

Video
ID : 1
Format : AVC
Format/Info : Advanced Video Codec
Codec ID : avc1
Codec ID/Info : Advanced Video Coding
Duration : 50mn 8s
Bit rate mode : Variable
Bit rate : 1 300 Kbps
Width : 712 pixels
Height : 400 pixels
Display aspect ratio : 16:9
Frame rate mode : Constant
Frame rate : 29.970 fps
Color space : YUV
Chroma subsampling : 4:2:0
Bit depth : 8 bits
Scan type : Progressive
Bits/(Pixel*Frame) : 0.152
Stream size : 467 MiB (87%)

Audio
ID : 2
Format : AAC
Format/Info : Advanced Audio Codec
Format profile : LC
Codec ID : 40
Duration : 50mn 9s
Bit rate mode : Variable
Bit rate : 192 Kbps
Channel(s) : 2 channels
Channel positions : Front: L R
Sampling rate : 48.0 KHz
Compression mode : Lossy
Stream size : 68.9 MiB (13%)
Title : Stereo

 

 

 

 

 

 

 

WWE.205.Live.2017.12.19.720p.WWE.Network.HDTV.x264-Ebi
Release Info:
Show Name: WWE 205 Live
Genre: Wrestling
Release Date: 2017-12-20(UK)
Air Date: 2017-12-19(US)
Source : HDTV
Container: MP4
Video: x264, 4705Kbps, 29,970fps, 1280×720, 16:9
Audio: AAC, 192Kbps, 48KHz, 2ch
Size: 1.65 GB
Runtime: 50mn 09s
 

 

 

 

 

 

Watch WWE 205 Live 2017 12 19 WWE Network HDTV Ebi /720p

 

 

 

 

Watch online

 

 

Waiting finish converting video

 

 

Server 1

 

 

 

 

 

 

 

 

 

 

 

 

 

 

 

 

 

 

 

 

Server 2

 

 

 

 

 

 

 

 

 

 

 

 


 

 

 

 

 

 

 

 

Uploaded By Site DX-TV.com

 

 

 

open rar file to see this password

 

 

 

 

The password is : DX-TV.com

 

 

 

 

400p+720p

 

 

 

 

 

rapidgator.net

 

 

 

 

 

 

 

 

 

http://shrt10.com/ZSKRmuX

 

 

 

http://shrt10.com/9XLl4L

 

 

 

 

 

 

 

 

 

 

 

 

Watch WWE 205 Live 2017 12 19 WWE Network HDTV Ebi /720p