Watch WWE 205 Live 2017 11 21 WEB /720p

Watch WWE 205 Live 2017 11 21 WEB /720p

 

 

 

 

 

 

wwe

 

 

 

 

 

 

 

 

 

 
Complete name : WWE.205.Live.2017.11.21.WEB.h264-HEEL.mp4
Format : MPEG-4
Format profile : Base Media
Codec ID : isom
File size : 666 MiB
Duration : 51mn 33s
Overall bit rate : 1 805 Kbps
Writing application : Lavf57.20.100

Video
ID : 1
Format : AVC
Duration : 51mn 33s
Bit rate mode : Constant
Bit rate : 1 704 Kbps
Width : 896 pixels
Height : 504 pixels
Display aspect ratio : 16:9
Frame rate mode : Constant
Frame rate : 29.970 fps
Color space : YUV
Chroma subsampling : 4:2:0
Bit depth : 8 bits
Scan type : Progressive
Bits/(Pixel*Frame) : 0.126
Stream size : 628 MiB (94%)

Audio
ID : 2
Format : AAC
Format profile : LC
Codec ID : 40
Duration : 51mn 33s
Bit rate mode : Variable
Bit rate : 93.5 Kbps
Maximum bit rate : 100 Kbps
Channel(s) : 2 channels
Channel positions : Front: L R
Sampling rate : 48.0 KHz
Compression mode : Lossy
Stream size : 34.5 MiB (5%)
Language : English

Text

 

 

 

 

 

 

 
Complete name : WWE.205.Live.2017.11.21.720p.WEB.h264-HEEL.mp4
Format : MPEG-4
Format profile : Base Media
Codec ID : isom
File size : 1.62 GiB
Duration : 51mn 33s
Overall bit rate : 4 504 Kbps
Writing application : Lavf57.20.100

Video
ID : 1
Format : AVC
Duration : 51mn 33s
Bit rate mode : Constant
Bit rate : 4 372 Kbps
Width : 1 280 pixels
Height : 720 pixels
Display aspect ratio : 16:9
Frame rate mode : Constant
Frame rate : 29.970 fps
Color space : YUV
Chroma subsampling : 4:2:0
Bit depth : 8 bits
Scan type : Progressive
Bits/(Pixel*Frame) : 0.158
Stream size : 1.57 GiB (97%)

Audio
ID : 2
Format : AAC
Format profile : LC
Codec ID : 40
Duration : 51mn 33s
Bit rate mode : Constant
Bit rate : 125 Kbps
Channel(s) : 2 channels
Channel positions : Front: L R
Sampling rate : 48.0 KHz
Compression mode : Lossy
Stream size : 46.3 MiB (3%)
Language : English
 

 

 

 

 

 

 

Watch WWE 205 Live 2017 11 21 WEB /720p

 

 

 

 

Watch online

 

 

Waiting finish converting video

 

 

Server 1

 

 

 

 

 

 

 

 

 

 

 

 

 

 

 

 

 

 

 

 

 

 

Srver 2

 

 

 

 

 

 

 

 

 


 

 

 

 

 

 

 

Server 3

 

 

 

 

 

 

 

 

 


 

 

 

 

 

 

 

Uploaded By Site DX-TV.com

 

 

 

open rar file to see this password

 

 

 

 

The password is : DX-TV.com

 

 

 

 

400p+720p

 

 

 

 

Uploaded.net

 

 

 

 

 

 

http://shrt10.com/scp9aDB8

 

 

 

 

http://shrt10.com/0dNCa7

 

 

 

 

 

 

 

 

rapidgator.net

 

 

 

 

 

 

 

http://shrt10.com/XJNkootD

 

 

 

 

 

http://shrt10.com/hs6P

 

 

 

 

 

 

 

 

 

Watch WWE 205 Live 2017 11 21 WEB /720p

Support HVIPS

Please Disable Ad-Block To View This site. just help us to continue this work