Watch WWE 205 Live 2017 11 14 WEB /720p mp4

Watch WWE 205 Live 2017 11 14 WEB /720p mp4

 

 

 

 

 

 

wwe

 

 

 

 

 

Complete name : WWE.205.Live.2017.11.14.WEB.h264-HEEL.mp4
Format : MPEG-4
Format profile : Base Media
Codec ID : isom
File size : 687 MiB
Duration : 53mn 13s
Overall bit rate : 1 805 Kbps
Writing application : Lavf57.20.100

Video
ID : 1
Format : AVC
Duration : 53mn 13s
Bit rate mode : Constant
Bit rate : 1 704 Kbps
Width : 896 pixels
Height : 504 pixels
Display aspect ratio : 16:9
Frame rate mode : Constant
Frame rate : 29.970 fps
Color space : YUV
Chroma subsampling : 4:2:0
Bit depth : 8 bits
Scan type : Progressive
Bits/(Pixel*Frame) : 0.126
Stream size : 648 MiB (94%)

Audio
ID : 2
Format : AAC
Format profile : LC
Codec ID : 40
Duration : 53mn 13s
Bit rate mode : Constant
Bit rate : 93.5 Kbps
Channel(s) : 2 channels
Channel positions : Front: L R
Sampling rate : 48.0 KHz
Compression mode : Lossy
Stream size : 35.6 MiB (5%)
Language : English

 

 

 

 

 

 
Complete name : WWE.205.Live.2017.11.14.720p.WEB.h264-HEEL.mp4
Format : MPEG-4
Format profile : Base Media
Codec ID : isom
File size : 1.67 GiB
Duration : 53mn 13s
Overall bit rate : 4 504 Kbps
Writing application : Lavf57.20.100

Video
ID : 1
Format : AVC
Duration : 53mn 13s
Bit rate mode : Constant
Bit rate : 4 372 Kbps
Width : 1 280 pixels
Height : 720 pixels
Display aspect ratio : 16:9
Frame rate mode : Constant
Frame rate : 29.970 fps
Color space : YUV
Chroma subsampling : 4:2:0
Bit depth : 8 bits
Scan type : Progressive
Bits/(Pixel*Frame) : 0.158
Stream size : 1.62 GiB (97%)

Audio
ID : 2
Format : AAC
Format profile : LC
Codec ID : 40
Duration : 53mn 13s
Bit rate mode : Constant
Bit rate : 125 Kbps
Channel(s) : 2 channels
Channel positions : Front: L R
Sampling rate : 48.0 KHz
Compression mode : Lossy
Stream size : 47.7 MiB (3%)
Language : English

 

 

 

 

 

 

 

 

 

 

 

Watch WWE 205 Live 2017 11 14 WEB /720p mp4

 

 

 

 

Watch online

 

 

Waiting finish converting video

 

 

Server 1

 

 

 

 

 

 

 

 

 

 

 

 

 

 

 

 

 

 

Srver 2

 

 

 

 

 

 

 

 

 

 

 

 

 

 

 

 

Server 3

 

 

 

 

 

 

 

 


 

 

 

 

 

 

 

 

Uploaded By Site DX-TV.com

 

 

 

open rar file to see this password

 

 

 

 

The password is : DX-TV.com

 

 

 

 

400p+720p

 

 

 

 

Uploaded.net

 

 

 

 

 

 

http://shrt10.com/1ecI1

 

 

 

 

 

 

http://shrt10.com/iAyh

 

 

 

 

 

rapidgator.net

 

 

 

 

 

http://shrt10.com/kkDjet

 

 

 

 

 

http://shrt10.com/DKFAVF

 

 

 

 

 

 

Watch WWE 205 Live 2017 11 14 WEB /720p mp4