Watch Wrestle Circus The Show Must Go On 02 17 2018 1080p mp4

Watch Wrestle Circus The Show Must Go On 02 17 2018 1080p mp4

 

 

 

 

 

 

wwe

 

 

 

 

 

 

 
Complete name : WrestleCircus-The.Show.Must.Go.On.02.17.18.1080p.mp4
Format : MPEG-4
Format profile : Base Media
Codec ID : isom
File size : 4.27 GiB
Duration : 3h 51mn
Overall bit rate : 2 638 Kbps
Writing application : Lavf57.78.100

Video
ID : 1
Format : AVC
Format/Info : Advanced Video Codec
Codec ID : avc1
Codec ID/Info : Advanced Video Coding
Duration : 3h 51mn
Bit rate mode : Variable
Bit rate : 2 499 Kbps
Width : 1 920 pixels
Height : 1 080 pixels
Display aspect ratio : 16:9
Frame rate mode : Variable
Frame rate : 29.920 fps
Minimum frame rate : 7.463 fps
Maximum frame rate : 30.303 fps
Color space : YUV
Chroma subsampling : 4:2:0
Bit depth : 8 bits
Scan type : Progressive
Bits/(Pixel*Frame) : 0.040
Stream size : 4.04 GiB (95%)

Audio
ID : 2
Format : AAC
Format/Info : Advanced Audio Codec
Format profile : LC
Codec ID : 40
Duration : 3h 51mn
Bit rate mode : Constant
Bit rate : 129 Kbps
Channel(s) : 2 channels
Channel positions : Front: L R
Sampling rate : 48.0 KHz
Compression mode : Lossy
Stream size : 214 MiB (5%)

 

 

 

 

 

 

 

 

 

 

 

 

 

 

 

 

 

 

Watch Wrestle Circus The Show Must Go On 02 17 2018 1080p mp4

 

 

 

 

Watch online

 

 

Waiting finish converting video

 

 

Server 1

 

 

 

 

 

 

 

 

 

 

 

 

 

 

 

 

 

 

 

Server 2

 

 

 

 

 

 

 

 


 

 

 

 

 

Uploaded By Site DX-TV.com

 

 

 

open rar file to see this password

 

 

 

 

The password is : DX-TV.com

 

 

 

 

1080p

 

 

 

 

 

Uploaded.net + rapidgator.net

 

 

 

 

 

 

http://shrt10.com/o3jyb

 

 

http://shrt10.com/VAHnBchK

 

 

http://shrt10.com/GCF6

 

 

http://shrt10.com/ZG0f9Uod

 

 

 

 

 

 

 

 

 

 

 

Watch Wrestle Circus The Show Must Go On 02 17 2018 1080p mp4

Support HVIPS

Please Disable Ad-Block To View This site. just help us to continue this work