Watch World of Sport Wrestling UK 2018 S01E02 WEB DL ITV

Watch World of Sport Wrestling UK 2018 S01E02 WEB DL ITV

 

 

 

 


 

 

dx-tv.com

 

 

 

 

 

Complete name : World.of.Sport.Wrestling.UK.2018.S01E02.WEB-DL.x264-ITV.mp4
Format : MPEG-4
Format profile : Base Media
File size : 543 MiB
Duration : 46 min 54 s
Overall bit rate mode : Variable
Overall bit rate : 1 617 kb/s
Writing application : Lavf58.12.100

Video
ID : 1
Format : AVC
Format/Info : Advanced Video Codec
Codec ID/Info : Advanced Video Coding
Duration : 46 min 54 s
Bit rate : 1 513 kb/s
Nominal bit rate : 1 704 kb/s
Width : 896 pixels
Height : 504 pixels
Display aspect ratio : 16:9
Frame rate mode : Variable
Frame rate : 25.000 FPS
Minimum frame rate : 12.500 FPS
Maximum frame rate : 90 000.000 FPS
Color space : YUV
Chroma subsampling : 4:2:0
Bit depth : 8 bits
Scan type : Progressive
Bits/(Pixel*Frame) : 0.134
Stream size : 508 MiB (94%)
Writing library : x264 core 138

Audio
ID : 2
Format : AAC
Format/Info : Advanced Audio Codec
Format profile : LC
Codec ID : mp4a-40-2
Duration : 46 min 54 s
Bit rate mode : Variable
Bit rate : 96.0 kb/s
Maximum bit rate : 109 kb/s
Channel(s) : 2 channels
Channel positions : Front: L R
Sampling rate : 48.0 kHz
Frame rate : 46.875 FPS (1024 SPF)
Compression mode : Lossy
Stream size : 32.2 MiB (6%)
Default : Yes
Alternate group : 1

 

 

 

Watch World of Sport Wrestling UK 2018 S01E02 WEB DL ITV

 

 

 

 

Watch online

 

 

Waiting finish converting video

 

 

Server 1

 

 

 

 

 

 

 

 

 

 

 

 

 

 

 

 

 

 

Server 2

 

 

 

 

 

 

 

 

 

 

 

 

 

 

 

 

 

Uploaded By Site DX-TV.com

 

 

 

open rar file to see this password

 

 

 

 

The password : DX-TV.com

 

 

 

 

 

 

Uploaded.net + rapidgator.net

 

 

 

 

 

 

 

http://shrt10.com/QN74

 

 

 

 

 

http://shrt10.com/Sz7T

 

 

 

 

 

 

 

 

Watch World of Sport Wrestling UK 2018 S01E02 WEB DL ITV

This site uses Akismet to reduce spam. Learn how your comment data is processed.

Support HVIPS

Please Disable Ad-Block To View This site. just help us to continue this work