Watch World of Sport Wrestling UK 2018 S01E01 WEB DL ITV

Watch World of Sport Wrestling UK 2018 S01E01 WEB DL ITV

 

 

 

 


 

 

dx-tv.com

 

 

 

 

 
Complete name : World.of.Sport.Wrestling.UK.2018.S01E01.WEB-DL.x264-ITV.mp4
Format : MPEG-4
Format profile : Base Media
Codec ID : isom
File size : 540 MiB
Duration : 46mn 37s
Overall bit rate : 1 620 Kbps
Writing application : Lavf58.12.100

Video
ID : 1
Format : AVC
Format/Info : Advanced Video Codec
Codec ID/Info : Advanced Video Coding
Duration : 46mn 37s
Bit rate mode : Variable
Bit rate : 1 516 Kbps
Nominal bit rate : 1 704 Kbps
Width : 896 pixels
Height : 504 pixels
Display aspect ratio : 16:9
Frame rate mode : Variable
Frame rate : 25.000 fps
Minimum frame rate : 12.500 fps
Maximum frame rate : 90 000.000 fps
Color space : YUV
Chroma subsampling : 4:2:0
Bit depth : 8 bits
Scan type : Progressive
Bits/(Pixel*Frame) : 0.134
Stream size : 505 MiB (94%)
Writing library : x264 core 138

Audio
ID : 2
Format : AAC
Format/Info : Advanced Audio Codec
Format profile : LC
Codec ID : 40
Duration : 46mn 37s
Bit rate mode : Variable
Bit rate : 96.0 Kbps
Maximum bit rate : 99.4 Kbps
Channel(s) : 2 channels
Channel positions : Front: L R
Sampling rate : 48.0 KHz
Compression mode : Lossy
Stream size : 32.0 MiB (6%)

 

 

 

Watch World of Sport Wrestling UK 2018 S01E01 WEB DL ITV

 

 

 

 

Watch online

 

 

Waiting finish converting video

 

 

Server 1

 

 

 

 

 

 

 

 

 

 

 

 

 

 

 

Server 2

 

 

 

 

 

 


 

 

 

 

 

Uploaded By Site DX-TV.com

 

 

 

open rar file to see this password

 

 

 

 

The password : DX-TV.com

 

 

 

 

 

Uploaded.net + rapidgator.net

 

 

 

 

 
http://shrt10.com/pqdzrtL

 

 

 

 

 

 
http://shrt10.com/1bvpWZZ
 

 

 

 

 

 

 

 

 

 

 

 

Watch World of Sport Wrestling UK 2018 S01E01 WEB DL ITV

This site uses Akismet to reduce spam. Learn how your comment data is processed.

Support HVIPS

Please Disable Ad-Block To View This site. just help us to continue this work