Watch Wanted Dead or Alive Mr Hughes Shoot Interview

Watch Wanted Dead or Alive Mr Hughes Shoot Interview

 

 

 

 

 

 

wwe

 

 

 

 

 

 

 

Video Duration: 01:28:25

On this episode of “Wanted Dead or Alive,” Dr. Tom sits down with Mr. Hughes.
Whether you know him as the Cat Daddy, Big Cat, or as a bodyguard,
Mr. Hughes shoots straight with Dr. Tom about all things in his career.
From being a standout athlete at Kansas State University to breaking
in by calling up Bob Geigel directly and training for free.
You get the lowdown from the man himself as he talks about
getting his big break in WCW and how he made his initial run in the WWF
and every run with them after that. This is another can’t miss
episode of Wanted Dead or Alive.
 

 

 

 
Complete name : Wanted Dead or Alive – Mr. Hughes.mp4
Format : MPEG-4
Format profile : Base Media
Codec ID : isom
File size : 1 013 MiB
Duration : 1h 28mn
Overall bit rate : 1 602 Kbps

Video
ID : 1
Format : AVC
Format/Info : Advanced Video Codec
Codec ID : avc1
Codec ID/Info : Advanced Video Coding
Duration : 1h 28mn
Bit rate mode : Variable
Bit rate : 1 496 Kbps
Width : 854 pixels
Height : 480 pixels
Display aspect ratio : 16:9
Frame rate mode : Constant
Frame rate : 29.970 fps
Color space : YUV
Chroma subsampling : 4:2:0
Bit depth : 8 bits
Scan type : Progressive
Bits/(Pixel*Frame) : 0.122
Stream size : 946 MiB (93%)

Audio
ID : 2
Format : AAC
Format/Info : Advanced Audio Codec
Format profile : LTP
Codec ID : 40
Duration : 1h 28mn
Bit rate mode : Constant
Bit rate : 99.5 Kbps
Channel(s) : 3 channels
Channel positions : Front: L C R
Sampling rate : 64.0 KHz
Compression mode : Lossy
Stream size : 62.9 MiB (6%)

 

 

 

 

 

 

 

 

 

 

Watch Wanted Dead or Alive Mr Hughes Shoot Interview

 

 

 

 

Watch online

 

 

Waiting finish converting video

 

 

Server 1

 

 

 

 

 

 

 

 

 

 

 

 

 

 

 

 

 

 

 

 

Server 2

 

 

 

 

 

 

 

 

 

 

 

 


 

 

 

 

 

 

 

 

 

Uploaded By Site DX-TV.com

 

 

 

open rar file to see this password

 

 

 

 

The password is : DX-TV.com

 

 

 

 

 

 

rapidgator.net

 

 

 

 

 

 

 

 

 

 

 

http://shrt10.com/4Riuxu1E

 

 

 

 

 

 

 

 

 

Watch Wanted Dead or Alive Mr Hughes Shoot Interview