Watch Wanted Dead or Alive Kevin Kelly

Watch Wanted Dead or Alive Kevin Kelly

 

 

s

 

 

 

wwe

 

 

 

 

 

 

 
Complete name : Wanted Dead or Alive – Kevin Kelly.mp4
Format : MPEG-4
Format profile : Base Media
Codec ID : isom
File size : 1.54 GiB
Duration : 1h 21mn
Overall bit rate : 2 699 Kbps
Writing application : Lavf55.12.100

Video
ID : 2
Format : AVC
Format/Info : Advanced Video Codec
Codec ID : avc1
Codec ID/Info : Advanced Video Coding
Duration : 1h 21mn
Bit rate mode : Variable
Bit rate : 2 590 Kbps
Width : 1 280 pixels
Height : 720 pixels
Display aspect ratio : 16:9
Frame rate mode : Constant
Frame rate : 29.970 fps
Color space : YUV
Chroma subsampling : 4:2:0
Bit depth : 8 bits
Scan type : Progressive
Bits/(Pixel*Frame) : 0.094
Stream size : 1.47 GiB (96%)
Audio
ID : 1
Format : AAC
Format/Info : Advanced Audio Codec
Format profile : LC
Codec ID : 40
Duration : 1h 21mn
Bit rate mode : Constant
Bit rate : 102 Kbps
Channel(s) : 2 channels
Channel positions : Front: L R
Sampling rate : 48.0 KHz
Compression mode : Lossy
Stream size : 59.5 MiB (4%)

 

 

 

Wanted Dead or Alive Kevin Kelly 
Video Duration: 01:21:30 

On this episode of Wanted Dead or Alive we are getting the WWE Byte This crew back together for an amazing in depth conversation about the thing we all love professional wrestling. Dr. Tom is joined by one of the most recognizable voices to all wrestling fans, the lead announcer for New Japan Pro Wrestling Kevin Kelly. You are going to hear amazing stories from Kevin as he tells you how he first saw wrestling and was influenced by the voice of wrestling announcing legend Gordon Solie. 

 

 

 

Watch Wanted Dead or Alive Kevin Kelly

 

 

Watch online

 

 

Waiting finish converting video

 

 

Server 1

 

 

 

 

 

 

 

 

 

 

 

 

 

 

 

 

Server 2

 

 

 

 

 


 

 

 

 

 

Uploaded By Site DX-TV.com

 

 

 

open rar file to see this password

 

 

 

 

The password is : DX-TV.com

 

 

 

 

 

 

 

Uploaded.net + rapidgator.net

 

 

 

 

 

 

 

 

http://shrt10.com/9hiqk

 

 

 

 

 

http://shrt10.com/BCVep3u7

 

 

 

 

 

 

 

 

 

Watch Wanted Dead or Alive Kevin Kelly

Support HVIPS

Please Disable Ad-Block To View This site. just help us to continue this work