Watch UFC The Ultimate Fighter 26 Finale A New World Champion Finale HDTV Ebi /720p

Watch UFC The Ultimate Fighter 26 Finale A New World Champion Finale HDTV Ebi /720p

 

 

 

 

 

 

wwe

 

 

 

 

 

 

 

Complete name : UFC.The.Ultimate.Fighter.26.Finale.A.New.World.Champion.Finale.HDTV.x264-Ebi.mp4
Format : MPEG-4
Format profile : Base Media / Version 2
Codec ID : mp42
File size : 1.82 GiB
Duration : 2h 57mn
Overall bit rate : 1 467 Kbps
Encoded date : UTC 2017-12-02 07:05:52
Tagged date : UTC 2017-12-02 07:05:52
Writing application : HandBrake 1.0.7 2017040900

Video
ID : 1
Format : AVC
Format/Info : Advanced Video Codec
Format settings, ReFrames : 4 frames
Codec ID : avc1
Codec ID/Info : Advanced Video Coding
Duration : 2h 57mn
Bit rate mode : Variable
Bit rate : 1 300 Kbps
Width : 712 pixels
Height : 400 pixels
Display aspect ratio : 16:9
Frame rate mode : Constant
Frame rate : 29.970 fps
Color space : YUV
Chroma subsampling : 4:2:0
Bit depth : 8 bits
Scan type : Progressive
Bits/(Pixel*Frame) : 0.152
Stream size : 1.61 GiB (89%)

Audio
ID : 2
Format : AAC
Format/Info : Advanced Audio Codec
Format profile : LC
Codec ID : 40
Duration : 2h 57mn
Bit rate mode : Variable
Bit rate : 160 Kbps
Channel(s) : 2 channels
Channel positions : Front: L R
Sampling rate : 48.0 KHz
Compression mode : Lossy
Stream size : 204 MiB (11%)
Title : Stereo

 

 

 

Complete name :the.ultimate.fighter.s26.finale.720p.hdtv.x264-verum.mkv
Format : Matroska
File size : 4.59 GiB
Duration : 3h 17mn
Overall bit rate : 3 328 Kbps

Video
ID : 1
Format : AVC
Codec ID : V_MPEG4/ISO/AVC
Duration : 3h 17mn
Bit rate : 3 006 Kbps
Width : 1 280 pixels
Height : 720 pixels
Display aspect ratio : 16:9
Frame rate : 50.000 fps
Color space : YUV
Chroma subsampling : 4:2:0
Bit depth : 8 bits
Scan type : Progressive
Bits/(Pixel*Frame) : 0.065
Stream size : 4.15 GiB (90%)

Audio
ID : 2
Format version : Version 1
Format profile : Layer 2
Codec ID : A_MPEG/L2
Codec ID/Hint : MP2
Duration : 3h 17mn
Bit rate mode : Constant
Bit rate : 256 Kbps
Channel(s) : 2 channels
Sampling rate : 48.0 KHz
Compression mode : Lossy
Delay relative to video : -536ms
Stream size : 362 MiB (8%)

 

 

 

 

 

 

 

 

 

 

 

 

 

Watch UFC The Ultimate Fighter 26 Finale A New World Champion Finale HDTV Ebi /720p

 

 

 

 

Watch online

 

 

Waiting finish converting video

 

 

Server 1

 

 

 

 

 

 

 

 

 

 

 

 

 

 

 

 

 

 

 

 

Server 2

 

 

 

 

 

 

 

 

 


 

 

 

 

 

Srver 3

 

 

 

 

 

 

 

 


 

 

 

 

 

 

 

 

Uploaded By Site DX-TV.com

 

 

 

open rar file to see this password

 

 

 

 

The password is : DX-TV.com

 

 

 

 

400p+720p

 

 

 

Uploaded.net

 

 

 

 

 

 

 

http://shrt10.com/Uj9PBij

 

 

 

http://shrt10.com/X2s2Mud

 

 

 

 

 

 

 

 

rapidgator.net

 

 

 

 

http://shrt10.com/gR8YZ3h

 

 

http://shrt10.com/gijMj

 

 

 

 

 

 

 

Watch UFC The Ultimate Fighter 26 Finale A New World Champion Finale HDTV Ebi /720p

Support HVIPS

Please Disable Ad-Block To View This site. just help us to continue this work