Watch UFC on Fox 28 Emmett vs Stephens HDTV Ebi /720p

Watch UFC on Fox 28 Emmett vs Stephens HDTV Ebi /720p

 

 

 

 

 

 

wwe

 

 

 

 

 

 

 

Complete name : UFC.on.Fox.28.Emmett.vs.Stephens.HDTV.x264-Ebi.mp4
Format : MPEG-4
Format profile : Base Media / Version 2
Codec ID : mp42
File size : 1.28 GiB
Duration : 2h 5mn
Overall bit rate : 1 461 Kbps
Encoded date : UTC 2018-02-25 03:42:28
Tagged date : UTC 2018-02-25 03:42:28

Video
ID : 1
Format : AVC
Format/Info : Advanced Video Codec
Codec ID : avc1
Codec ID/Info : Advanced Video Coding
Duration : 2h 5mn
Bit rate mode : Variable
Bit rate : 1 300 Kbps
Width : 712 pixels
Height : 400 pixels
Display aspect ratio : 16:9
Frame rate mode : Constant
Frame rate : 29.970 fps
Color space : YUV
Chroma subsampling : 4:2:0
Bit depth : 8 bits
Scan type : Progressive
Bits/(Pixel*Frame) : 0.152
Stream size : 1.14 GiB (89%)

Audio
ID : 2
Format : AAC
Format/Info : Advanced Audio Codec
Format profile : LC
Codec ID : 40
Duration : 2h 5mn
Bit rate mode : Variable
Bit rate : 160 Kbps
Channel(s) : 2 channels
Channel positions : Front: L R
Sampling rate : 48.0 KHz
Compression mode : Lossy
Stream size : 144 MiB (11%)
Title : Stereo
Encoded date : UTC 2018-02-25 03:42:28
Tagged date : UTC 2018-02-25 03:42:28

 

 

 

 

 

 

 
UFC.On.FOX.28.720p.HDTV.x264-KYR
— – – – – —
title [ UFC on FOX 28 ]
genre [ MMA ] crf [ 23 ]
rel. date [ 02.24.18 ] format [ x264 ]
air date [ 02.24.18 ] source [ HDTV ]
runtime [ 1h 50m 08s ] bitrate [ 4694kbps ]
filesize [ 3.95 GB ] resolu. [ 1280×720 ]
rar count [ 86x50mb ] frames [ 59.940 ]
[ audio [ 448 kbps AC3 5.1 ]
[ location [ USA ]
 

 

 

 

 

 

 

 

 

 

Watch UFC on Fox 28 Emmett vs Stephens HDTV Ebi /720p

 

 

 

 

Watch online

 

 

Waiting finish converting video

 

 

Server 1

 

 

 

 

 

 

 

 

 

 

 

 

 

 

 

Server 2

 

 

 

 

 

 


 

 

 

 

 

 

 

Uploaded By Site DX-TV.com

 

 

 

open rar file to see this password

 

 

 

 

The password is : DX-TV.com

 

 

 

 

400p+720p

 

 

 

 

 

Uploaded.net + rapidgator.net

 

 

 

 

 

 

http://shrt10.com/azzTkC

 

 

http://shrt10.com/N7tigtkC

 

 

http://shrt10.com/QTjQuz

 

 

http://shrt10.com/uhQ718dL

 

 

 

 

 

 

 

 

 

Watch UFC on Fox 28 Emmett vs Stephens HDTV Ebi /720p