Watch UFC on Fox 28 Early Prelims WEB DL /720p

Watch UFC on Fox 28 Early Prelims WEB DL /720p

 

 

 

 

 

 

wwe

 

 

 

 

 

 

Complete name : UFC.on.Fox.28.Early.Prelims.WEB-DL.mp4
Format : MPEG-4
Format profile : Base Media
Codec ID : isom
File size : 1.11 GiB
Duration : 1h 43mn
Overall bit rate : 1 529 Kbps
Writing application : Lavf56.40.101

Video
ID : 1
Format : AVC
Format/Info : Advanced Video Codec
Codec ID : avc1
Codec ID/Info : Advanced Video Coding
Duration : 1h 43mn
Bit rate mode : Variable
Bit rate : 1 442 Kbps
Width : 960 pixels
Height : 540 pixels
Display aspect ratio : 16:9
Frame rate mode : Constant
Frame rate : 29.970 fps
Color space : YUV
Chroma subsampling : 4:2:0
Bit depth : 8 bits
Scan type : Progressive
Bits/(Pixel*Frame) : 0.093
Stream size : 1.05 GiB (94%)

Audio
ID : 2
Format : AAC
Format/Info : Advanced Audio Codec
Format profile : LC
Codec ID : 40
Duration : 1h 43mn
Bit rate mode : Constant
Bit rate : 77.6 Kbps
Channel(s) : 2 channels
Channel positions : Front: L R
Sampling rate : 44.1 KHz
Compression mode : Lossy
Stream size : 57.6 MiB (5%)

 

 

 

 

 

 

 

 
[EVENT]: UFC.on.Fox.28.Early.Prelims.720p.WEB-DL.mp4
[SIZE]: 3.21 GB
[SOURCE]: Fight Pass
[CONTAINER]: mp4
[RESOLUTION]: 1280 x 720 @ 29.970 FPS
[VIDEO]: H264 @ 4288 Kbps
[AUDIO]: AAC @ 126 kbps
[Length]: 01:43:47
[Language]: English
 

 

 

 

 

 

 

 

 

 

Watch UFC on Fox 28 Early Prelims WEB DL /720p

 

 

 

 

Watch online

 

 

Waiting finish converting video

 

 

Server 1

 

 

 

 

 

 

 

 

 

 

 

 

 

 

 

 

 

Server 2

 

 

 

 

 

 

 

 

 

 

 

 

Uploaded By Site DX-TV.com

 

 

 

open rar file to see this password

 

 

 

 

The password is : DX-TV.com

 

 

 

 

400p+720p

 

 

 

 

 

Uploaded.net + rapidgator.net

 

 

 

 

 

http://shrt10.com/QDhLJ

 

 

http://shrt10.com/upHIvtB

 

 

 

http://shrt10.com/h1FI7C

 

 

http://shrt10.com/4PD5wO6f

 

 

 

 

 

 

 

 

Watch UFC on Fox 28 Early Prelims WEB DL /720p