Watch UFC on Fox 27 WEB DL /720p

Watch UFC on Fox 27 WEB DL /720p

 

 

 

 

 

 

wwe

 

 

 

 

 

 

[EVENT]: UFC.on.Fox.27.WEB-DLmp4
[SIZE]: 1.34 GB
[SOURCE]: Fight Pass
[CONTAINER]: mp4
[RESOLUTION]: 852 x 480 @ 29.970 FPS
[VIDEO]: H264 @ 1399 Kbps
[AUDIO]: AAC @ 77.5 kbps
[Length]: 02:08:58
[Language]: English

 

 

 

 

 

 

 
Complete name : UFC.on.Fox.27.720p WEB-DL.mp4
Format : MPEG-4
Format profile : Base Media
Codec ID : isom
File size : 3.72 GiB
Duration : 2h 8mn
Overall bit rate : 4 124 Kbps
Writing application : Lavf56.40.101

Video
ID : 1
Format : AVC
Format/Info : Advanced Video Codec
Codec ID : avc1
Codec ID/Info : Advanced Video Coding
Duration : 2h 8mn
Bit rate mode : Variable
Bit rate : 3 991 Kbps
Width : 1 280 pixels
Height : 720 pixels
Display aspect ratio : 16:9
Frame rate mode : Variable
Frame rate : 29.970 fps
Minimum frame rate : 0.483 fps
Maximum frame rate : 29.970 fps
Color space : YUV
Chroma subsampling : 4:2:0
Bit depth : 8 bits
Scan type : Progressive
Bits/(Pixel*Frame) : 0.144
Stream size : 3.59 GiB (97%)

Audio
ID : 2
Format : AAC
Format/Info : Advanced Audio Codec
Format profile : LC
Codec ID : 40
Duration : 2h 8mn
Bit rate mode : Variable
Bit rate : 126 Kbps
Maximum bit rate : 151 Kbps
Channel(s) : 2 channels
Channel positions : Front: L R
Sampling rate : 44.1 KHz
Compression mode : Lossy
Stream size : 116 MiB (3%)

 

 

 

 

 

 

 

 

 

 

Watch UFC on Fox 27 WEB DL /720p

 

 

 

 

Watch online

 

 

Waiting finish converting video

 

 

Server 1

 

 

 

 

 

 

 

 

 

 

 

 

 

 

 

 

 

 

 

 

 

 

 

 

 

Server 2

 

 

 

 

 

 

 

 

 

 

 


 

 

 

 

 

 

 

 

Uploaded By Site DX-TV.com

 

 

 

open rar file to see this password

 

 

 

 

The password is : DX-TV.com

 

 

 

 

400p+720p

 

 

 

 

 

Uploaded.net + rapidgator.net

 

 

 

 

 

 

 

http://shrt10.com/eYEw9F5

 

 

http://shrt10.com/5XboH

 

 

http://shrt10.com/2VGTmSIt

 

 

http://shrt10.com/D2pTbAX

 

 

 

 

 

 

 

 

 

 

Watch UFC on Fox 27 WEB DL /720p

Support HVIPS

Please Disable Ad-Block To View This site. just help us to continue this work