Watch UFC on Fox 27 Prelims WEB DL /720p

Watch UFC on Fox 27 Prelims WEB DL /720p

 

 

 

 

 

 

wwe

 

 

 

 

 
[EVENT]: UFC.on.Fox.27.Prelims.WEB-DL.mp4
[SIZE]: 1.88 GB
[SOURCE]: Fight Pass
[CONTAINER]: mp4
[RESOLUTION]: 960 x 540 @ 29.970 FPS
[VIDEO]: H264 @ 1419 Kbps
[AUDIO]: AAC @ 78.2 kbps
[Length]: 02:58:50
[Language]: English
 

 

 

 

 

 

 

 

 
Complete name : UFC.on.Fox.27.Prelims.720p.WEB DL.mp4
Format : MPEG-4
Format profile : Base Media
Codec ID : isom
File size : 5.29 GiB
Duration : 2h 58mn
Overall bit rate : 4 235 Kbps
Writing application : Lavf56.40.101

Video
ID : 1
Format : AVC
Format/Info : Advanced Video Codec
Codec ID : avc1
Codec ID/Info : Advanced Video Coding
Duration : 2h 58mn
Bit rate mode : Variable
Bit rate : 4 099 Kbps
Width : 1 280 pixels
Height : 720 pixels
Display aspect ratio : 16:9
Frame rate mode : Variable
Frame rate : 29.944 fps
Original frame rate : 29.970 fps
Minimum frame rate : 0.210 fps
Maximum frame rate : 29.970 fps
Color space : YUV
Chroma subsampling : 4:2:0
Bit depth : 8 bits
Scan type : Progressive
Bits/(Pixel*Frame) : 0.149
Stream size : 5.12 GiB (97%)

Audio
ID : 2
Format : AAC
Format/Info : Advanced Audio Codec
Format profile : LC
Codec ID : 40
Duration : 2h 58mn
Bit rate mode : Variable
Bit rate : 125 Kbps
Maximum bit rate : 126 Kbps
Channel(s) : 2 channels
Channel positions : Front: L R
Sampling rate : 44.1 KHz
Compression mode : Lossy
Stream size : 161 MiB (3%)

 

 

 

 

 

 

 

 

 

 

 

 

 

 

 

 

Watch UFC on Fox 27 Prelims WEB DL /720p

 

 

 

 

Watch online

 

 

Waiting finish converting video

 

 

Server 1

 

 

 

 

 

 

 

 

 

 

 

 

 

 

 

 

 

 

 

 

 

 

 

 

 

 

 

 

 

 

 

Srver 2

 

 

 

 

 

 

 

 

 

 

 

 

 


 

 

 

 

 

 

 

 

 

 

 

Uploaded By Site DX-TV.com

 

 

 

open rar file to see this password

 

 

 

 

The password is : DX-TV.com

 

 

 

 

400p+720p

 

 

 

 

Uploaded.net + rapidgator.net

 

 

 

 

 

 

 

http://shrt10.com/Bkj4C

 

 

http://shrt10.com/9mzpZx

 

 

http://shrt10.com/wmGW

 

 

http://shrt10.com/sKHu

 

 

http://shrt10.com/Lkv2xygr

 

 

http://shrt10.com/XgnSTw5B

 

 

 

 

 

 

 

 

 

 

 

 

 

 

 

 

 

 

 

 

 

 

 

Watch UFC on Fox 27 Prelims WEB DL /720p