Watch UFC on Fox 27 Early Prelims WEB /720p

Watch UFC on Fox 27 Early Prelims WEB /720p

 

 

 

 

 

 

wwe

 

 

 

 

 

 

[EVENT]: UFC.on.Fox.27.Early.Prelims.720p.WEB-DL.mp4
[SIZE]: 1.83 GB
[SOURCE]: Fight Pass
[CONTAINER]: mp4
[RESOLUTION]: 1280 x 720 @ 29.970 FPS
[VIDEO]: H264 @ 4284 Kbps
[AUDIO]: AAC @ 126 kbps
[Length]: 00:59:10
[Language]: English
 

 

 

 

 

 

 

 

 
Complete name : UFC.on.Fox.27.Early.Prelims.720p.WEB-DL..mp4
Format : MPEG-4
Format profile : Base Media
Codec ID : isom
File size : 1.83 GiB
Duration : 59mn 10s
Overall bit rate : 4 419 Kbps
Writing application : Lavf56.40.101

Video
ID : 1
Format : AVC
Format/Info : Advanced Video Codec
Codec ID : avc1
Codec ID/Info : Advanced Video Coding
Duration : 59mn 10s
Bit rate mode : Variable
Bit rate : 4 284 Kbps
Width : 1 280 pixels
Height : 720 pixels
Display aspect ratio : 16:9
Frame rate mode : Constant
Frame rate : 29.970 fps
Color space : YUV
Chroma subsampling : 4:2:0
Bit depth : 8 bits
Scan type : Progressive
Bits/(Pixel*Frame) : 0.155
Stream size : 1.77 GiB (97%)

Audio
ID : 2
Format : AAC
Format/Info : Advanced Audio Codec
Format profile : LC
Codec ID : 40
Duration : 59mn 10s
Bit rate mode : Variable
Bit rate : 126 Kbps
Maximum bit rate : 139 Kbps
Channel(s) : 2 channels
Channel positions : Front: L R
Sampling rate : 44.1 KHz
Compression mode : Lossy
Stream size : 53.2 MiB (3%)

 

 

 

 

 

 

 

 

 

 

 

 

 

 

Watch UFC on Fox 27 Early Prelims WEB /720p

 

 

 

 

Watch online

 

 

Waiting finish converting video

 

 

Server 1

 

 

 

 

 

 

 

 

 

 

 

 

 

 

 

 

 

 

 

 

 

 

 

 

Srver 2

 

 

 

 

 

 

 

 

 

 

 

 

 

 

 

 

 

 

 

 

 

 

 

 

 

 

 

Uploaded By Site DX-TV.com

 

 

 

open rar file to see this password

 

 

 

 

The password is : DX-TV.com

 

 

 

 

400p+720p

 

 

 

 

Uploaded.net + rapidgator.net

 

 

 

 

 

 

http://shrt10.com/NcP7fz

 

http://shrt10.com/TR9eui5

 

 

 

http://shrt10.com/Dv985

 

http://shrt10.com/2pdDu

 

 

 

 

 

 

 

 

 

 

 

 

 

 

 

 

 

 

 

 

 

 

 

Watch UFC on Fox 27 Early Prelims WEB /720p

Support HVIPS

Please Disable Ad-Block To View This site. just help us to continue this work